  0
SECTION
  2
HEADER
  9
$ACADVER
  1
AC1015
  9
$ACADMAINTVER
 70
    20
  9
$DWGCODEPAGE
  3
ANSI_1250
  9
$INSBASE
 10
0.0
 20
0.0
 30
0.0
  9
$EXTMIN
 10
0.0
 20
0.0
 30
0.0
  9
$EXTMAX
 10
210.0
 20
297.0000076293946
 30
0.0
  9
$LIMMIN
 10
0.0
 20
0.0
  9
$LIMMAX
 10
709.676
 20
548.3859999999999
  9
$ORTHOMODE
 70
     0
  9
$REGENMODE
 70
     1
  9
$FILLMODE
 70
     1
  9
$QTEXTMODE
 70
     0
  9
$MIRRTEXT
 70
     0
  9
$LTSCALE
 40
1.0
  9
$ATTMODE
 70
     1
  9
$TEXTSIZE
 40
0.2
  9
$TRACEWID
 40
0.05
  9
$TEXTSTYLE
  7
Standard
  9
$CLAYER
  8
0
  9
$CELTYPE
  6
ByLayer
  9
$CECOLOR
 62
   256
  9
$CELTSCALE
 40
1.0
  9
$DISPSILH
 70
     0
  9
$DIMSCALE
 40
1.0
  9
$DIMASZ
 40
1.799999999999999
  9
$DIMEXO
 40
0.0625
  9
$DIMDLI
 40
0.38
  9
$DIMRND
 40
0.0
  9
$DIMDLE
 40
0.0
  9
$DIMEXE
 40
0.18
  9
$DIMTP
 40
0.0
  9
$DIMTM
 40
0.0
  9
$DIMTXT
 40
0.3499999940395355
  9
$DIMCEN
 40
0.09
  9
$DIMTSZ
 40
0.0
  9
$DIMTOL
 70
     0
  9
$DIMLIM
 70
     0
  9
$DIMTIH
 70
     1
  9
$DIMTOH
 70
     1
  9
$DIMSE1
 70
     0
  9
$DIMSE2
 70
     0
  9
$DIMTAD
 70
     0
  9
$DIMZIN
 70
     0
  9
$DIMBLK
  1

  9
$DIMASO
 70
     1
  9
$DIMSHO
 70
     1
  9
$DIMPOST
  1

  9
$DIMAPOST
  1

  9
$DIMALT
 70
     0
  9
$DIMALTD
 70
     2
  9
$DIMALTF
 40
25.4
  9
$DIMLFAC
 40
1.0
  9
$DIMTOFL
 70
     0
  9
$DIMTVP
 40
0.0
  9
$DIMTIX
 70
     0
  9
$DIMSOXD
 70
     0
  9
$DIMSAH
 70
     0
  9
$DIMBLK1
  1

  9
$DIMBLK2
  1

  9
$DIMSTYLE
  2
Standard
  9
$DIMCLRD
 70
     0
  9
$DIMCLRE
 70
     0
  9
$DIMCLRT
 70
     0
  9
$DIMTFAC
 40
1.0
  9
$DIMGAP
 40
0.09
  9
$DIMJUST
 70
     0
  9
$DIMSD1
 70
     0
  9
$DIMSD2
 70
     0
  9
$DIMTOLJ
 70
     1
  9
$DIMTZIN
 70
     0
  9
$DIMALTZ
 70
     0
  9
$DIMALTTZ
 70
     0
  9
$DIMUPT
 70
     0
  9
$DIMDEC
 70
     4
  9
$DIMTDEC
 70
     4
  9
$DIMALTU
 70
     2
  9
$DIMALTTD
 70
     2
  9
$DIMTXSTY
  7
Standard
  9
$DIMAUNIT
 70
     0
  9
$DIMADEC
 70
     0
  9
$DIMALTRND
 40
0.0
  9
$DIMAZIN
 70
     0
  9
$DIMDSEP
 70
    46
  9
$DIMATFIT
 70
     3
  9
$DIMFRAC
 70
     0
  9
$DIMLDRBLK
  1

  9
$DIMLUNIT
 70
     2
  9
$DIMLWD
 70
    -2
  9
$DIMLWE
 70
    -2
  9
$DIMTMOVE
 70
     0
  9
$LUNITS
 70
     2
  9
$LUPREC
 70
     4
  9
$SKETCHINC
 40
0.1
  9
$FILLETRAD
 40
0.0
  9
$AUNITS
 70
     0
  9
$AUPREC
 70
     0
  9
$MENU
  1
.
  9
$ELEVATION
 40
0.0
  9
$PELEVATION
 40
0.0
  9
$THICKNESS
 40
0.0
  9
$LIMCHECK
 70
     0
  9
$CHAMFERA
 40
0.0
  9
$CHAMFERB
 40
0.0
  9
$CHAMFERC
 40
0.0
  9
$CHAMFERD
 40
0.0
  9
$SKPOLY
 70
     0
  9
$TDCREATE
 40
2453643.720672014
  9
$TDUCREATE
 40
2453643.637338681
  9
$TDUPDATE
 40
2453643.729611898
  9
$TDUUPDATE
 40
2453643.646278565
  9
$TDINDWG
 40
0.0002334606
  9
$TDUSRTIMER
 40
0.0002334606
  9
$USRTIMER
 70
     1
  9
$ANGBASE
 50
0.0
  9
$ANGDIR
 70
     0
  9
$PDMODE
 70
     0
  9
$PDSIZE
 40
0.0
  9
$PLINEWID
 40
0.0
  9
$SPLFRAME
 70
     0
  9
$SPLINETYPE
 70
     6
  9
$SPLINESEGS
 70
     8
  9
$HANDSEED
  5
5AF
  9
$SURFTAB1
 70
     6
  9
$SURFTAB2
 70
     6
  9
$SURFTYPE
 70
     6
  9
$SURFU
 70
     6
  9
$SURFV
 70
     6
  9
$UCSBASE
  2

  9
$UCSNAME
  2

  9
$UCSORG
 10
0.0
 20
0.0
 30
0.0
  9
$UCSXDIR
 10
1.0
 20
0.0
 30
0.0
  9
$UCSYDIR
 10
0.0
 20
1.0
 30
0.0
  9
$UCSORTHOREF
  2

  9
$UCSORTHOVIEW
 70
     0
  9
$UCSORGTOP
 10
0.0
 20
0.0
 30
0.0
  9
$UCSORGBOTTOM
 10
0.0
 20
0.0
 30
0.0
  9
$UCSORGLEFT
 10
0.0
 20
0.0
 30
0.0
  9
$UCSORGRIGHT
 10
0.0
 20
0.0
 30
0.0
  9
$UCSORGFRONT
 10
0.0
 20
0.0
 30
0.0
  9
$UCSORGBACK
 10
0.0
 20
0.0
 30
0.0
  9
$PUCSBASE
  2

  9
$PUCSNAME
  2

  9
$PUCSORG
 10
0.0
 20
0.0
 30
0.0
  9
$PUCSXDIR
 10
1.0
 20
0.0
 30
0.0
  9
$PUCSYDIR
 10
0.0
 20
1.0
 30
0.0
  9
$PUCSORTHOREF
  2

  9
$PUCSORTHOVIEW
 70
     0
  9
$PUCSORGTOP
 10
0.0
 20
0.0
 30
0.0
  9
$PUCSORGBOTTOM
 10
0.0
 20
0.0
 30
0.0
  9
$PUCSORGLEFT
 10
0.0
 20
0.0
 30
0.0
  9
$PUCSORGRIGHT
 10
0.0
 20
0.0
 30
0.0
  9
$PUCSORGFRONT
 10
0.0
 20
0.0
 30
0.0
  9
$PUCSORGBACK
 10
0.0
 20
0.0
 30
0.0
  9
$USERI1
 70
     0
  9
$USERI2
 70
     0
  9
$USERI3
 70
     0
  9
$USERI4
 70
     0
  9
$USERI5
 70
     0
  9
$USERR1
 40
0.0
  9
$USERR2
 40
0.0
  9
$USERR3
 40
0.0
  9
$USERR4
 40
0.0
  9
$USERR5
 40
0.0
  9
$WORLDVIEW
 70
     1
  9
$SHADEDGE
 70
     3
  9
$SHADEDIF
 70
    70
  9
$TILEMODE
 70
     1
  9
$MAXACTVP
 70
    64
  9
$PINSBASE
 10
0.0
 20
0.0
 30
0.0
  9
$PLIMCHECK
 70
     0
  9
$PEXTMIN
 10
0.0
 20
0.0
 30
0.0
  9
$PEXTMAX
 10
709.676
 20
548.3859999999999
 30
0.0
  9
$PLIMMIN
 10
0.0
 20
0.0
  9
$PLIMMAX
 10
709.676
 20
548.3859999999999
  9
$UNITMODE
 70
     0
  9
$VISRETAIN
 70
     1
  9
$PLINEGEN
 70
     0
  9
$PSLTSCALE
 70
     1
  9
$TREEDEPTH
 70
  3020
  9
$CMLSTYLE
  2
Standard
  9
$CMLJUST
 70
     0
  9
$CMLSCALE
 40
1.0
  9
$PROXYGRAPHICS
 70
     1
  9
$MEASUREMENT
 70
     1
  9
$CELWEIGHT
370
    -1
  9
$ENDCAPS
280
     0
  9
$JOINSTYLE
280
     0
  9
$LWDISPLAY
290
     0
  9
$INSUNITS
 70
     0
  9
$HYPERLINKBASE
  1

  9
$STYLESHEET
  1

  9
$XEDIT
290
     1
  9
$CEPSNTYPE
380
     0
  9
$PSTYLEMODE
290
     1
  9
$FINGERPRINTGUID
  2
{1A0977A1-B6BB-48BF-9000-70735F87A816}
  9
$VERSIONGUID
  2
{FDAFA0A0-A6D3-4E8D-AA82-4FA6EE10DFB5}
  9
$EXTNAMES
290
     1
  9
$PSVPSCALE
 40
0.0
  9
$OLESTARTUP
290
     0
  0
ENDSEC
  0
SECTION
  2
CLASSES
  0
CLASS
  1
ACDBDICTIONARYWDFLT
  2
AcDbDictionaryWithDefault
  3
ObjectDBX Classes
 90
        0
280
     0
281
     0
  0
CLASS
  1
DICTIONARYVAR
  2
AcDbDictionaryVar
  3
ObjectDBX Classes
 90
        0
280
     0
281
     0
  0
CLASS
  1
ACDBPLACEHOLDER
  2
AcDbPlaceHolder
  3
ObjectDBX Classes
 90
        0
280
     0
281
     0
  0
CLASS
  1
LAYOUT
  2
AcDbLayout
  3
ObjectDBX Classes
 90
        0
280
     0
281
     0
  0
ENDSEC
  0
SECTION
  2
TABLES
  0
TABLE
  2
VPORT
  5
8
330
0
100
AcDbSymbolTable
 70
     2
  0
VPORT
  5
5A3
330
8
100
AcDbSymbolTableRecord
100
AcDbViewportTableRecord
  2
*Active
 70
     0
 10
0.0
 20
0.0
 11
1.0
 21
1.0
 12
126.0996813828234
 22
190.195525130424
 13
0.0
 23
0.0
 14
1.0
 24
1.0
 15
0.0
 25
0.0
 16
0.0
 26
0.0
 36
1.0
 17
0.0
 27
0.0
 37
0.0
 40
236.354366912665
 41
1.848848848848848
 42
50.0
 43
0.0
 44
0.0
 50
0.0
 51
0.0
 71
     0
 72
   100
 73
     1
 74
     1
 75
     0
 76
     0
 77
     0
 78
     0
281
     0
 65
     1
110
0.0
120
0.0
130
0.0
111
1.0
121
0.0
131
0.0
112
0.0
122
1.0
132
0.0
 79
     0
146
0.0
  0
ENDTAB
  0
TABLE
  2
LTYPE
  5
5
330
0
100
AcDbSymbolTable
 70
    59
  0
LTYPE
  5
14
330
5
100
AcDbSymbolTableRecord
100
AcDbLinetypeTableRecord
  2
ByBlock
 70
     0
  3

 72
    65
 73
     0
 40
0.0
  0
LTYPE
  5
15
330
5
100
AcDbSymbolTableRecord
100
AcDbLinetypeTableRecord
  2
ByLayer
 70
     0
  3

 72
    65
 73
     0
 40
0.0
  0
LTYPE
  5
16
330
5
100
AcDbSymbolTableRecord
100
AcDbLinetypeTableRecord
  2
Continuous
 70
     0
  3
Solid line
 72
    65
 73
     0
 40
0.0
  0
LTYPE
  5
2A
330
5
100
AcDbSymbolTableRecord
100
AcDbLinetypeTableRecord
  2
Section_View_Lines
 70
     0
  3
Section View Lines
 72
    65
 73
     4
 40
0.8406
 49
0.6614
 74
     0
 49
-0.0827
 74
     0
 49
0.0138
 74
     0
 49
-0.0827
 74
     0
  0
LTYPE
  5
2B
330
5
100
AcDbSymbolTableRecord
100
AcDbLinetypeTableRecord
  2
CHAIN
 70
     0
  3
Chain ____ _ ____ _ ____ _ ____ _ ____ _ ____
 72
    65
 73
     4
 40
0.3543
 49
0.2362
 74
     0
 49
-0.0295
 74
     0
 49
0.0591
 74
     0
 49
-0.0295
 74
     0
  0
LTYPE
  5
2C
330
5
100
AcDbSymbolTableRecord
100
AcDbLinetypeTableRecord
  2
DASH_DOT
 70
     0
  3
Dash dot _._._._._._._._._._._._._._._.
 72
    65
 73
     4
 40
0.182
 49
0.1181
 74
     0
 49
-0.0295
 74
     0
 49
0.0049
 74
     0
 49
-0.0295
 74
     0
  0
LTYPE
  5
2D
330
5
100
AcDbSymbolTableRecord
100
AcDbLinetypeTableRecord
  2
DASH_DOUBLE_DOT
 70
     0
  3
Dash Double Dot __ __ . __ __ . __ __ . __ _
 72
    65
 73
     6
 40
0.2164
 49
0.1181
 74
     0
 49
-0.0295
 74
     0
 49
0.0049
 74
     0
 49
-0.0295
 74
     0
 49
0.0049
 74
     0
 49
-0.0295
 74
     0
  0
LTYPE
  5
2E
330
5
100
AcDbSymbolTableRecord
100
AcDbLinetypeTableRecord
  2
DASH_TRIPLE_DOT
 70
     0
  3
Dash Triple-Dot _ . . . _ . . . _ . . . _
 72
    65
 73
     8
 40
0.2508
 49
0.1181
 74
     0
 49
-0.0295
 74
     0
 49
0.0049
 74
     0
 49
-0.0295
 74
     0
 49
0.0049
 74
     0
 49
-0.0295
 74
     0
 49
0.0049
 74
     0
 49
-0.0295
 74
     0
  0
LTYPE
  5
2F
330
5
100
AcDbSymbolTableRecord
100
AcDbLinetypeTableRecord
  2
DASHED
 70
     0
  3
Dashed __ __ __ __ __ __ __ __ __ __ __ __ __ _
 72
    65
 73
     2
 40
0.2068
 49
0.1655
 74
     0
 49
-0.0413
 74
     0
  0
LTYPE
  5
30
330
5
100
AcDbSymbolTableRecord
100
AcDbLinetypeTableRecord
  2
DASHED_SPACE
 70
     0
  3
Dashed Space __ __ __ __ __ __ __ __ __ __ __ _
 72
    65
 73
     2
 40
0.2067
 49
0.1654
 74
     0
 49
-0.0413
 74
     0
  0
LTYPE
  5
31
330
5
100
AcDbSymbolTableRecord
100
AcDbLinetypeTableRecord
  2
DOTTED
 70
     0
  3
Dotted . . . . . . . . . . . . . . . . . . . . 
 72
    65
 73
     2
 40
0.0481
 49
0.0068
 74
     0
 49
-0.0413
 74
     0
  0
LTYPE
  5
32
330
5
100
AcDbSymbolTableRecord
100
AcDbLinetypeTableRecord
  2
DOUBLE_DASH_CHAIN
 70
     0
  3
Double Dash Chain ___ _ _ ___ _ _ ___ _ _ ___ _
 72
    65
 73
     6
 40
1.240299999999999
 49
0.6614
 74
     0
 49
-0.0827
 74
     0
 49
0.1654
 74
     0
 49
-0.0827
 74
     0
 49
0.1654
 74
     0
 49
-0.0827
 74
     0
  0
LTYPE
  5
33
330
5
100
AcDbSymbolTableRecord
100
AcDbLinetypeTableRecord
  2
DOUBLE_DASH_DOT
 70
     0
  3
Double Dash Dot __ __ . __ __ . __ __ . __ _
 72
    65
 73
     6
 40
0.3296
 49
0.1181
 74
     0
 49
-0.0295
 74
     0
 49
0.1181
 74
     0
 49
-0.0295
 74
     0
 49
0.0049
 74
     0
 49
-0.0295
 74
     0
  0
LTYPE
  5
34
330
5
100
AcDbSymbolTableRecord
100
AcDbLinetypeTableRecord
  2
DOUBLE_DASH_DOUBLE_DOT
 70
     0
  3
Double Dash Double Dot _ _ . . _ _ . . _ _
 72
    65
 73
     8
 40
0.364
 49
0.1181
 74
     0
 49
-0.0295
 74
     0
 49
0.1181
 74
     0
 49
-0.0295
 74
     0
 49
0.0049
 74
     0
 49
-0.0295
 74
     0
 49
0.0049
 74
     0
 49
-0.0295
 74
     0
  0
LTYPE
  5
35
330
5
100
AcDbSymbolTableRecord
100
AcDbLinetypeTableRecord
  2
DOUBLE_DASH_TRIPLE_DOT
 70
     0
  3
Double Dash Triple Dot __ __ . . . __ __ . . .
 72
    65
 73
    10
 40
0.3984
 49
0.1181
 74
     0
 49
-0.0295
 74
     0
 49
0.1181
 74
     0
 49
-0.0295
 74
     0
 49
0.0049
 74
     0
 49
-0.0295
 74
     0
 49
0.0049
 74
     0
 49
-0.0295
 74
     0
 49
0.0049
 74
     0
 49
-0.0295
 74
     0
  0
LTYPE
  5
36
330
5
100
AcDbSymbolTableRecord
100
AcDbLinetypeTableRecord
  2
LONG_DASH_DOTTED
 70
     0
  3
Long Dash Dotted ____ . ____ . ____ . ____ . _
 72
    65
 73
     4
 40
0.3001
 49
0.2362
 74
     0
 49
-0.0295
 74
     0
 49
0.0049
 74
     0
 49
-0.0295
 74
     0
  0
LTYPE
  5
37
330
5
100
AcDbSymbolTableRecord
100
AcDbLinetypeTableRecord
  2
LONG_DASH_DOUBLE_DOT
 70
     0
  3
Long Dash Double Dot ____ . . ____ . . ____ . .
 72
    65
 73
     6
 40
0.3345
 49
0.2362
 74
     0
 49
-0.0295
 74
     0
 49
0.0049
 74
     0
 49
-0.0295
 74
     0
 49
0.0049
 74
     0
 49
-0.0295
 74
     0
  0
LTYPE
  5
38
330
5
100
AcDbSymbolTableRecord
100
AcDbLinetypeTableRecord
  2
LONG_DASH_TRIPLE_DOT
 70
     0
  3
Long Dash Triple Dot ____ ... ____ ... ____
 72
    65
 73
     8
 40
0.3689
 49
0.2362
 74
     0
 49
-0.0295
 74
     0
 49
0.0049
 74
     0
 49
-0.0295
 74
     0
 49
0.0049
 74
     0
 49
-0.0295
 74
     0
 49
0.0049
 74
     0
 49
-0.0295
 74
     0
  0
LTYPE
  5
39
330
5
100
AcDbSymbolTableRecord
100
AcDbLinetypeTableRecord
  2
BORDER
 70
     0
  3
Border __ __ . __ __ . __ __ . __ __ . __ __ .
 72
    65
 73
     6
 40
44.45
 49
12.7
 74
     0
 49
-6.349999999999999
 74
     0
 49
12.7
 74
     0
 49
-6.349999999999999
 74
     0
 49
0.0
 74
     0
 49
-6.349999999999999
 74
     0
  0
LTYPE
  5
3A
330
5
100
AcDbSymbolTableRecord
100
AcDbLinetypeTableRecord
  2
BORDER2
 70
     0
  3
Border (.5x) __.__.__.__.__.__.__.__.__.__.__.
 72
    65
 73
     6
 40
22.225
 49
6.349999999999999
 74
     0
 49
-3.174999999999999
 74
     0
 49
6.349999999999999
 74
     0
 49
-3.174999999999999
 74
     0
 49
0.0
 74
     0
 49
-3.174999999999999
 74
     0
  0
LTYPE
  5
3B
330
5
100
AcDbSymbolTableRecord
100
AcDbLinetypeTableRecord
  2
BORDERX2
 70
     0
  3
Border (2x) ____  ____  .  ____  ____  .  ___
 72
    65
 73
     6
 40
88.9
 49
25.4
 74
     0
 49
-12.7
 74
     0
 49
25.4
 74
     0
 49
-12.7
 74
     0
 49
0.0
 74
     0
 49
-12.7
 74
     0
  0
LTYPE
  5
3C
330
5
100
AcDbSymbolTableRecord
100
AcDbLinetypeTableRecord
  2
CENTER
 70
     0
  3
Center ____ _ ____ _ ____ _ ____ _ ____ _ ____
 72
    65
 73
     4
 40
50.8
 49
31.75
 74
     0
 49
-6.349999999999999
 74
     0
 49
6.349999999999999
 74
     0
 49
-6.349999999999999
 74
     0
  0
LTYPE
  5
3D
330
5
100
AcDbSymbolTableRecord
100
AcDbLinetypeTableRecord
  2
CENTER2
 70
     0
  3
Center (.5x) ___ _ ___ _ ___ _ ___ _ ___ _ ___
 72
    65
 73
     4
 40
28.575
 49
19.05
 74
     0
 49
-3.174999999999999
 74
     0
 49
3.174999999999999
 74
     0
 49
-3.174999999999999
 74
     0
  0
LTYPE
  5
3E
330
5
100
AcDbSymbolTableRecord
100
AcDbLinetypeTableRecord
  2
CENTERX2
 70
     0
  3
Center (2x) ________  __  ________  __  _____
 72
    65
 73
     4
 40
101.6
 49
63.5
 74
     0
 49
-12.7
 74
     0
 49
12.7
 74
     0
 49
-12.7
 74
     0
  0
LTYPE
  5
3F
330
5
100
AcDbSymbolTableRecord
100
AcDbLinetypeTableRecord
  2
DASHDOT2
 70
     0
  3
Dash dot (.5x) _._._._._._._._._._._._._._._.
 72
    65
 73
     4
 40
12.7
 49
6.349999999999999
 74
     0
 49
-3.174999999999999
 74
     0
 49
0.0
 74
     0
 49
-3.174999999999999
 74
     0
  0
LTYPE
  5
40
330
5
100
AcDbSymbolTableRecord
100
AcDbLinetypeTableRecord
  2
DASHDOTX2
 70
     0
  3
Dash dot (2x) ____  .  ____  .  ____  .  ___
 72
    65
 73
     4
 40
50.8
 49
25.4
 74
     0
 49
-12.7
 74
     0
 49
0.0
 74
     0
 49
-12.7
 74
     0
  0
LTYPE
  5
41
330
5
100
AcDbSymbolTableRecord
100
AcDbLinetypeTableRecord
  2
DASHED2
 70
     0
  3
Dashed (.5x) _ _ _ _ _ _ _ _ _ _ _ _ _ _ _ _ _
 72
    65
 73
     2
 40
9.524999999999998
 49
6.349999999999999
 74
     0
 49
-3.174999999999999
 74
     0
  0
LTYPE
  5
42
330
5
100
AcDbSymbolTableRecord
100
AcDbLinetypeTableRecord
  2
DASHEDX2
 70
     0
  3
Dashed (2x) ____  ____  ____  ____  ____  ___
 72
    65
 73
     2
 40
38.1
 49
25.4
 74
     0
 49
-12.7
 74
     0
  0
LTYPE
  5
43
330
5
100
AcDbSymbolTableRecord
100
AcDbLinetypeTableRecord
  2
DIVIDE
 70
     0
  3
Divide ____ . . ____ . . ____ . . ____ . . ____
 72
    65
 73
     6
 40
31.75
 49
12.7
 74
     0
 49
-6.349999999999999
 74
     0
 49
0.0
 74
     0
 49
-6.349999999999999
 74
     0
 49
0.0
 74
     0
 49
-6.349999999999999
 74
     0
  0
LTYPE
  5
44
330
5
100
AcDbSymbolTableRecord
100
AcDbLinetypeTableRecord
  2
DIVIDE2
 70
     0
  3
Divide (.5x) __..__..__..__..__..__..__..__.._
 72
    65
 73
     6
 40
15.875
 49
6.349999999999999
 74
     0
 49
-3.174999999999999
 74
     0
 49
0.0
 74
     0
 49
-3.174999999999999
 74
     0
 49
0.0
 74
     0
 49
-3.174999999999999
 74
     0
  0
LTYPE
  5
45
330
5
100
AcDbSymbolTableRecord
100
AcDbLinetypeTableRecord
  2
DIVIDEX2
 70
     0
  3
Divide (2x) ________  .  .  ________  .  .  _
 72
    65
 73
     6
 40
63.49999999999999
 49
25.4
 74
     0
 49
-12.7
 74
     0
 49
0.0
 74
     0
 49
-12.7
 74
     0
 49
0.0
 74
     0
 49
-12.7
 74
     0
  0
LTYPE
  5
46
330
5
100
AcDbSymbolTableRecord
100
AcDbLinetypeTableRecord
  2
DOT
 70
     0
  3
Dot . . . . . . . . . . . . . . . . . . . . . .
 72
    65
 73
     2
 40
6.349999999999999
 49
0.0
 74
     0
 49
-6.349999999999999
 74
     0
  0
LTYPE
  5
47
330
5
100
AcDbSymbolTableRecord
100
AcDbLinetypeTableRecord
  2
DOT2
 70
     0
  3
Dot (.5x) .....................................
 72
    65
 73
     2
 40
3.174999999999999
 49
0.0
 74
     0
 49
-3.174999999999999
 74
     0
  0
LTYPE
  5
48
330
5
100
AcDbSymbolTableRecord
100
AcDbLinetypeTableRecord
  2
DOTX2
 70
     0
  3
Dot (2x) .  .  .  .  .  .  .  .  .  .  .  .  . 
 72
    65
 73
     2
 40
12.7
 49
0.0
 74
     0
 49
-12.7
 74
     0
  0
LTYPE
  5
49
330
5
100
AcDbSymbolTableRecord
100
AcDbLinetypeTableRecord
  2
HIDDEN
 70
     0
  3
Hidden __ __ __ __ __ __ __ __ __ __ __ __ __ _
 72
    65
 73
     2
 40
9.524999999999998
 49
6.349999999999999
 74
     0
 49
-3.174999999999999
 74
     0
  0
LTYPE
  5
4A
330
5
100
AcDbSymbolTableRecord
100
AcDbLinetypeTableRecord
  2
HIDDEN2
 70
     0
  3
Hidden (.5x) _ _ _ _ _ _ _ _ _ _ _ _ _ _ _ _ _
 72
    65
 73
     2
 40
4.762499999999999
 49
3.174999999999999
 74
     0
 49
-1.587499999999999
 74
     0
  0
LTYPE
  5
4B
330
5
100
AcDbSymbolTableRecord
100
AcDbLinetypeTableRecord
  2
HIDDENX2
 70
     0
  3
Hidden (2x) ____ ____ ____ ____ ____ ____ ____
 72
    65
 73
     2
 40
19.05
 49
12.7
 74
     0
 49
-6.349999999999999
 74
     0
  0
LTYPE
  5
4C
330
5
100
AcDbSymbolTableRecord
100
AcDbLinetypeTableRecord
  2
PHANTOM
 70
     0
  3
Phantom ______  __  __  ______  __  __  ______
 72
    65
 73
     6
 40
63.5
 49
31.75
 74
     0
 49
-6.349999999999999
 74
     0
 49
6.349999999999999
 74
     0
 49
-6.349999999999999
 74
     0
 49
6.349999999999999
 74
     0
 49
-6.349999999999999
 74
     0
  0
LTYPE
  5
4D
330
5
100
AcDbSymbolTableRecord
100
AcDbLinetypeTableRecord
  2
PHANTOM2
 70
     0
  3
Phantom (.5x) ___ _ _ ___ _ _ ___ _ _ ___ _ _
 72
    65
 73
     6
 40
31.75
 49
15.875
 74
     0
 49
-3.174999999999999
 74
     0
 49
3.174999999999999
 74
     0
 49
-3.174999999999999
 74
     0
 49
3.174999999999999
 74
     0
 49
-3.174999999999999
 74
     0
  0
LTYPE
  5
4E
330
5
100
AcDbSymbolTableRecord
100
AcDbLinetypeTableRecord
  2
PHANTOMX2
 70
     0
  3
Phantom (2x) ____________    ____    ____   _
 72
    65
 73
     6
 40
127.0
 49
63.5
 74
     0
 49
-12.7
 74
     0
 49
12.7
 74
     0
 49
-12.7
 74
     0
 49
12.7
 74
     0
 49
-12.7
 74
     0
  0
LTYPE
  5
4F
330
5
100
AcDbSymbolTableRecord
100
AcDbLinetypeTableRecord
  2
ACAD_ISO02W100
 70
     0
  3
ISO dash __ __ __ __ __ __ __ __ __ __ __ __ __
 72
    65
 73
     2
 40
15.0
 49
12.0
 74
     0
 49
-3.0
 74
     0
  0
LTYPE
  5
50
330
5
100
AcDbSymbolTableRecord
100
AcDbLinetypeTableRecord
  2
ACAD_ISO03W100
 70
     0
  3
ISO dash space __    __    __    __    __    __
 72
    65
 73
     2
 40
30.0
 49
12.0
 74
     0
 49
-18.0
 74
     0
  0
LTYPE
  5
51
330
5
100
AcDbSymbolTableRecord
100
AcDbLinetypeTableRecord
  2
ACAD_ISO04W100
 70
     0
  3
ISO long-dash dot ____ . ____ . ____ . ____ . _
 72
    65
 73
     4
 40
30.0
 49
24.0
 74
     0
 49
-3.0
 74
     0
 49
0.0
 74
     0
 49
-3.0
 74
     0
  0
LTYPE
  5
52
330
5
100
AcDbSymbolTableRecord
100
AcDbLinetypeTableRecord
  2
ACAD_ISO05W100
 70
     0
  3
ISO long-dash double-dot ____ .. ____ .. ____ .
 72
    65
 73
     6
 40
33.0
 49
24.0
 74
     0
 49
-3.0
 74
     0
 49
0.0
 74
     0
 49
-3.0
 74
     0
 49
0.0
 74
     0
 49
-3.0
 74
     0
  0
LTYPE
  5
53
330
5
100
AcDbSymbolTableRecord
100
AcDbLinetypeTableRecord
  2
ACAD_ISO06W100
 70
     0
  3
ISO long-dash triple-dot ____ ... ____ ... ____
 72
    65
 73
     8
 40
36.0
 49
24.0
 74
     0
 49
-3.0
 74
     0
 49
0.0
 74
     0
 49
-3.0
 74
     0
 49
0.0
 74
     0
 49
-3.0
 74
     0
 49
0.0
 74
     0
 49
-3.0
 74
     0
  0
LTYPE
  5
54
330
5
100
AcDbSymbolTableRecord
100
AcDbLinetypeTableRecord
  2
ACAD_ISO07W100
 70
     0
  3
ISO dot . . . . . . . . . . . . . . . . . . . .
 72
    65
 73
     2
 40
3.0
 49
0.0
 74
     0
 49
-3.0
 74
     0
  0
LTYPE
  5
55
330
5
100
AcDbSymbolTableRecord
100
AcDbLinetypeTableRecord
  2
ACAD_ISO08W100
 70
     0
  3
ISO long-dash short-dash ____ __ ____ __ ____ _
 72
    65
 73
     4
 40
36.0
 49
24.0
 74
     0
 49
-3.0
 74
     0
 49
6.0
 74
     0
 49
-3.0
 74
     0
  0
LTYPE
  5
56
330
5
100
AcDbSymbolTableRecord
100
AcDbLinetypeTableRecord
  2
ACAD_ISO09W100
 70
     0
  3
ISO long-dash double-short-dash ____ __ __ ____
 72
    65
 73
     6
 40
45.0
 49
24.0
 74
     0
 49
-3.0
 74
     0
 49
6.0
 74
     0
 49
-3.0
 74
     0
 49
6.0
 74
     0
 49
-3.0
 74
     0
  0
LTYPE
  5
57
330
5
100
AcDbSymbolTableRecord
100
AcDbLinetypeTableRecord
  2
ACAD_ISO10W100
 70
     0
  3
ISO dash dot __ . __ . __ . __ . __ . __ . __ .
 72
    65
 73
     4
 40
18.0
 49
12.0
 74
     0
 49
-3.0
 74
     0
 49
0.0
 74
     0
 49
-3.0
 74
     0
  0
LTYPE
  5
58
330
5
100
AcDbSymbolTableRecord
100
AcDbLinetypeTableRecord
  2
ACAD_ISO11W100
 70
     0
  3
ISO double-dash dot __ __ . __ __ . __ __ . __ 
 72
    65
 73
     6
 40
33.0
 49
12.0
 74
     0
 49
-3.0
 74
     0
 49
12.0
 74
     0
 49
-3.0
 74
     0
 49
0.0
 74
     0
 49
-3.0
 74
     0
  0
LTYPE
  5
59
330
5
100
AcDbSymbolTableRecord
100
AcDbLinetypeTableRecord
  2
ACAD_ISO12W100
 70
     0
  3
ISO dash double-dot __ . . __ . . __ . . __ . .
 72
    65
 73
     6
 40
21.0
 49
12.0
 74
     0
 49
-3.0
 74
     0
 49
0.0
 74
     0
 49
-3.0
 74
     0
 49
0.0
 74
     0
 49
-3.0
 74
     0
  0
LTYPE
  5
5A
330
5
100
AcDbSymbolTableRecord
100
AcDbLinetypeTableRecord
  2
ACAD_ISO13W100
 70
     0
  3
ISO double-dash double-dot __ __ . . __ __ . . 
 72
    65
 73
     8
 40
36.0
 49
12.0
 74
     0
 49
-3.0
 74
     0
 49
12.0
 74
     0
 49
-3.0
 74
     0
 49
0.0
 74
     0
 49
-3.0
 74
     0
 49
0.0
 74
     0
 49
-3.0
 74
     0
  0
LTYPE
  5
5B
330
5
100
AcDbSymbolTableRecord
100
AcDbLinetypeTableRecord
  2
ACAD_ISO14W100
 70
     0
  3
ISO dash triple-dot __ . . . __ . . . __ . . . 
 72
    65
 73
     8
 40
24.0
 49
12.0
 74
     0
 49
-3.0
 74
     0
 49
0.0
 74
     0
 49
-3.0
 74
     0
 49
0.0
 74
     0
 49
-3.0
 74
     0
 49
0.0
 74
     0
 49
-3.0
 74
     0
  0
LTYPE
  5
5C
330
5
100
AcDbSymbolTableRecord
100
AcDbLinetypeTableRecord
  2
ACAD_ISO15W100
 70
     0
  3
ISO double-dash triple-dot __ __ . . . __ __ . 
 72
    65
 73
    10
 40
39.0
 49
12.0
 74
     0
 49
-3.0
 74
     0
 49
12.0
 74
     0
 49
-3.0
 74
     0
 49
0.0
 74
     0
 49
-3.0
 74
     0
 49
0.0
 74
     0
 49
-3.0
 74
     0
 49
0.0
 74
     0
 49
-3.0
 74
     0
  0
LTYPE
  5
5F
330
5
100
AcDbSymbolTableRecord
100
AcDbLinetypeTableRecord
  2
FENCELINE1
 70
     0
  3
Fenceline circle ----0-----0----0-----0----0---
 72
    65
 73
     4
 40
36.83
 49
6.349999999999999
 74
     0
 49
-2.54
 74
     4
 75
   133
340
5E
 46
2.54
 50
0.0
 44
-2.54
 45
0.0
 49
-2.54
 74
     0
 49
25.4
 74
     0
  0
LTYPE
  5
60
330
5
100
AcDbSymbolTableRecord
100
AcDbLinetypeTableRecord
  2
FENCELINE2
 70
     0
  3
Fenceline square ----[]-----[]----[]-----[]----
 72
    65
 73
     4
 40
36.83
 49
6.349999999999999
 74
     0
 49
-2.54
 74
     4
 75
   132
340
5E
 46
2.54
 50
0.0
 44
-2.54
 45
0.0
 49
-2.54
 74
     0
 49
25.4
 74
     0
  0
LTYPE
  5
61
330
5
100
AcDbSymbolTableRecord
100
AcDbLinetypeTableRecord
  2
TRACKS
 70
     0
  3
Tracks -|-|-|-|-|-|-|-|-|-|-|-|-|-|-|-|-|-|-|-|
 72
    65
 73
     2
 40
7.62
 49
3.81
 74
     4
 75
   130
340
5E
 46
6.349999999999999
 50
0.0
 44
0.0
 45
0.0
 49
3.81
 74
     0
  0
LTYPE
  5
62
330
5
100
AcDbSymbolTableRecord
100
AcDbLinetypeTableRecord
  2
BATTING
 70
     0
  3
Batting SSSSSSSSSSSSSSSSSSSSSSSSSSSSSSSSSSSSSSS
 72
    65
 73
     4
 40
10.16254
 49
0.00254
 74
     0
 49
-2.54
 74
     4
 75
   134
340
5E
 46
2.54
 50
0.0
 44
-2.54
 45
0.0
 49
-5.08
 74
     4
 75
   134
340
5E
 46
2.54
 50
180.0
 44
2.54
 45
0.0
 49
-2.54
 74
     0
  0
LTYPE
  5
63
330
5
100
AcDbSymbolTableRecord
100
AcDbLinetypeTableRecord
  2
HOT_WATER_SUPPLY
 70
     0
  3
Hot water supply ---- HW ---- HW ---- HW ----
 72
    65
 73
     3
 40
22.86
 49
12.7
 74
     0
 49
-5.08
 74
     2
 75
     0
340
11
 46
2.54
 50
0.0
 44
-2.54
 45
-1.27
  9
HW
 49
-5.08
 74
     0
  0
LTYPE
  5
64
330
5
100
AcDbSymbolTableRecord
100
AcDbLinetypeTableRecord
  2
GAS_LINE
 70
     0
  3
Gas line ----GAS----GAS----GAS----GAS----GAS---
 72
    65
 73
     3
 40
24.13
 49
12.7
 74
     0
 49
-5.08
 74
     2
 75
     0
340
11
 46
2.54
 50
0.0
 44
-2.54
 45
-1.27
  9
GAS
 49
-6.349999999999999
 74
     0
  0
LTYPE
  5
65
330
5
100
AcDbSymbolTableRecord
100
AcDbLinetypeTableRecord
  2
ZIGZAG
 70
     0
  3
Zig zag /\/\/\/\/\/\/\/\/\/\/\/\/\/\/\/\/\/\/\/
 72
    65
 73
     4
 40
20.32254
 49
0.00254
 74
     0
 49
-5.08
 74
     4
 75
   131
340
5E
 46
5.08
 50
0.0
 44
-5.08
 45
0.0
 49
-10.16
 74
     4
 75
   131
340
5E
 46
5.08
 50
180.0
 44
5.08
 45
0.0
 49
-5.08
 74
     0
  0
ENDTAB
  0
TABLE
  2
LAYER
  5
2
330
0
100
AcDbSymbolTable
 70
    41
  0
LAYER
  5
10
330
2
100
AcDbSymbolTableRecord
100
AcDbLayerTableRecord
  2
0
 70
     0
 62
     7
  6
Continuous
370
    -3
390
F
  0
LAYER
  5
E4
330
2
100
AcDbSymbolTableRecord
100
AcDbLayerTableRecord
  2
Viditelné hrany
 70
     0
 62
     7
  6
Continuous
370
    25
390
F
  0
LAYER
  5
E5
330
2
100
AcDbSymbolTableRecord
100
AcDbLayerTableRecord
  2
Skryté hrany
 70
     0
 62
     5
  6
DASHED
370
    18
390
F
  0
LAYER
  5
E6
330
2
100
AcDbSymbolTableRecord
100
AcDbLayerTableRecord
  2
Tangenciální hrany
 70
     0
 62
   179
  6
Continuous
370
    50
390
F
  0
LAYER
  5
E7
330
2
100
AcDbSymbolTableRecord
100
AcDbLayerTableRecord
  2
Čáry řezu
 70
     0
 62
     7
  6
LONG_DASH_DOTTED
370
    25
390
F
  0
LAYER
  5
E8
330
2
100
AcDbSymbolTableRecord
100
AcDbLayerTableRecord
  2
Čáry kruhového detailu
 70
     0
 62
   176
  6
Continuous
370
     9
390
F
  0
LAYER
  5
E9
330
2
100
AcDbSymbolTableRecord
100
AcDbLayerTableRecord
  2
Kóty
 70
     0
 62
   179
  6
Continuous
370
     9
390
F
  0
LAYER
  5
EA
330
2
100
AcDbSymbolTableRecord
100
AcDbLayerTableRecord
  2
Středová značka
 70
     0
 62
   231
  6
CHAIN
370
    18
390
F
  0
LAYER
  5
EB
330
2
100
AcDbSymbolTableRecord
100
AcDbLayerTableRecord
  2
Značky
 70
     0
 62
    18
  6
Continuous
370
     9
390
F
  0
LAYER
  5
EC
330
2
100
AcDbSymbolTableRecord
100
AcDbLayerTableRecord
  2
Odkazová čára
 70
     0
 62
    18
  6
Continuous
370
     9
390
F
  0
LAYER
  5
ED
330
2
100
AcDbSymbolTableRecord
100
AcDbLayerTableRecord
  2
Čáry náčrtu
 70
     0
 62
   179
  6
Continuous
370
    18
390
F
  0
LAYER
  5
EE
330
2
100
AcDbSymbolTableRecord
100
AcDbLayerTableRecord
  2
Dělicí čáry
 70
     0
 62
   179
  6
DOUBLE_DASH_CHAIN
370
    18
390
F
  0
LAYER
  5
EF
330
2
100
AcDbSymbolTableRecord
100
AcDbLayerTableRecord
  2
Čáry symetrie
 70
     0
 62
   179
  6
LONG_DASH_DOTTED
370
    18
390
F
  0
LAYER
  5
F0
330
2
100
AcDbSymbolTableRecord
100
AcDbLayerTableRecord
  2
Čáry přerušení
 70
     0
 62
   137
  6
Continuous
370
     9
390
F
  0
LAYER
  5
F1
330
2
100
AcDbSymbolTableRecord
100
AcDbLayerTableRecord
  2
Čáry sešité 1
 70
     0
 62
   179
  6
DASHED_SPACE
370
    18
390
F
  0
LAYER
  5
F2
330
2
100
AcDbSymbolTableRecord
100
AcDbLayerTableRecord
  2
Čáry sešité 2
 70
     0
 62
   179
  6
DOTTED
370
    18
390
F
  0
LAYER
  5
F3
330
2
100
AcDbSymbolTableRecord
100
AcDbLayerTableRecord
  2
Osa
 70
     0
 62
   231
  6
CHAIN
370
    18
390
F
  0
LAYER
  5
F4
330
2
100
AcDbSymbolTableRecord
100
AcDbLayerTableRecord
  2
Pouze čáry náčrtu
 70
     0
 62
   179
  6
Continuous
370
    18
390
F
  0
LAYER
  5
F5
330
2
100
AcDbSymbolTableRecord
100
AcDbLayerTableRecord
  2
05 Čáry
 70
     0
 62
   179
  6
LONG_DASH_DOTTED
370
    18
390
F
  0
LAYER
  5
F6
330
2
100
AcDbSymbolTableRecord
100
AcDbLayerTableRecord
  2
06 Čáry
 70
     0
 62
   179
  6
LONG_DASH_DOUBLE_DOT
370
    18
390
F
  0
LAYER
  5
F7
330
2
100
AcDbSymbolTableRecord
100
AcDbLayerTableRecord
  2
07 Čáry
 70
     0
 62
   179
  6
LONG_DASH_TRIPLE_DOT
370
    18
390
F
  0
LAYER
  5
F8
330
2
100
AcDbSymbolTableRecord
100
AcDbLayerTableRecord
  2
08 Čáry
 70
     0
 62
   179
  6
CHAIN
370
    18
390
F
  0
LAYER
  5
F9
330
2
100
AcDbSymbolTableRecord
100
AcDbLayerTableRecord
  2
09 Čáry
 70
     0
 62
   179
  6
DOUBLE_DASH_CHAIN
370
    18
390
F
  0
LAYER
  5
FA
330
2
100
AcDbSymbolTableRecord
100
AcDbLayerTableRecord
  2
10 Čáry
 70
     0
 62
   179
  6
DASH_DOT
370
    18
390
F
  0
LAYER
  5
FB
330
2
100
AcDbSymbolTableRecord
100
AcDbLayerTableRecord
  2
11 Čáry
 70
     0
 62
   179
  6
DOUBLE_DASH_DOT
370
    18
390
F
  0
LAYER
  5
FC
330
2
100
AcDbSymbolTableRecord
100
AcDbLayerTableRecord
  2
12 Čáry
 70
     0
 62
   179
  6
DASH_DOUBLE_DOT
370
    18
390
F
  0
LAYER
  5
FD
330
2
100
AcDbSymbolTableRecord
100
AcDbLayerTableRecord
  2
13 Čáry
 70
     0
 62
   179
  6
DOUBLE_DASH_DOUBLE_DOT
370
    18
390
F
  0
LAYER
  5
FE
330
2
100
AcDbSymbolTableRecord
100
AcDbLayerTableRecord
  2
14 Čáry
 70
     0
 62
   179
  6
DASH_TRIPLE_DOT
370
    18
390
F
  0
LAYER
  5
FF
330
2
100
AcDbSymbolTableRecord
100
AcDbLayerTableRecord
  2
15 Čáry
 70
     0
 62
   179
  6
DOUBLE_DASH_TRIPLE_DOT
370
    18
390
F
  0
LAYER
  5
100
330
2
100
AcDbSymbolTableRecord
100
AcDbLayerTableRecord
  2
Rozsah ohybu
 70
     0
 62
     7
  6
Continuous
370
    18
390
F
  0
LAYER
  5
101
330
2
100
AcDbSymbolTableRecord
100
AcDbLayerTableRecord
  2
Čáry obrysu
 70
     0
 62
   179
  6
LONG_DASH_DOUBLE_DOT
370
    18
390
F
  0
LAYER
  5
102
330
2
100
AcDbSymbolTableRecord
100
AcDbLayerTableRecord
  2
Čáry speciálního určení
 70
     0
 62
   179
  6
LONG_DASH_DOTTED
370
    18
390
F
  0
LAYER
  5
103
330
2
100
AcDbSymbolTableRecord
100
AcDbLayerTableRecord
  2
Pracovní bod
 70
     0
 62
     7
  6
Continuous
370
    25
390
F
  0
LAYER
  5
104
330
2
100
AcDbSymbolTableRecord
100
AcDbLayerTableRecord
  2
Pracovní osa
 70
     0
 62
     7
  6
CHAIN
370
    25
390
F
  0
LAYER
  5
105
330
2
100
AcDbSymbolTableRecord
100
AcDbLayerTableRecord
  2
Pracovní rovina
 70
     0
 62
     7
  6
DOUBLE_DASH_CHAIN
370
    25
390
F
  0
LAYER
  5
106
330
2
100
AcDbSymbolTableRecord
100
AcDbLayerTableRecord
  2
Hatch
 70
     0
 62
     7
  6
Continuous
370
    25
390
F
  0
LAYER
  5
107
330
2
100
AcDbSymbolTableRecord
100
AcDbLayerTableRecord
  2
Text
 70
     0
 62
     7
  6
Continuous
370
    25
390
F
  0
LAYER
  5
2C2
330
2
100
AcDbSymbolTableRecord
100
AcDbLayerTableRecord
  2
2dTransBorder
 70
     0
 62
     7
  6
Continuous
370
    25
390
F
  0
LAYER
  5
2EA
330
2
100
AcDbSymbolTableRecord
100
AcDbLayerTableRecord
  2
2dTransTitleBlock
 70
     0
 62
     7
  6
Continuous
370
    25
390
F
  0
LAYER
  5
3DD
330
2
100
AcDbSymbolTableRecord
100
AcDbLayerTableRecord
  2
Defpoints
 70
     0
 62
     7
  6
Continuous
290
     0
370
    -3
390
F
  0
LAYER
  5
502
330
2
100
AcDbSymbolTableRecord
100
AcDbLayerTableRecord
  2
2dTransPartListTable
 70
     0
 62
     7
  6
Continuous
370
    25
390
F
  0
ENDTAB
  0
TABLE
  2
STYLE
  5
3
330
0
100
AcDbSymbolTable
 70
   141
  0
STYLE
  5
11
330
3
100
AcDbSymbolTableRecord
100
AcDbTextStyleTableRecord
  2
Standard
 70
     0
 40
0.0
 41
1.0
 50
0.0
 71
     0
 42
0.2
  3
isocp___.ttf
  4

1001
ACAD
1000
ISOCP
1071
      256
  0
STYLE
  5
5E
330
3
100
AcDbSymbolTableRecord
100
AcDbTextStyleTableRecord
  2

 70
     1
 40
0.0
 41
1.0
 50
0.0
 71
     0
 42
0.2
  3
ltypeshp.shx
  4

  0
STYLE
  5
66
330
3
100
AcDbSymbolTableRecord
100
AcDbTextStyleTableRecord
  2
Text Style1
 70
     0
 40
0.0
 41
1.0
 50
0.0
 71
     0
 42
0.2
  3
ARIAL.TTF
  4

1001
ACAD
1000
Arial
1071
      256
  0
STYLE
  5
67
330
3
100
AcDbSymbolTableRecord
100
AcDbTextStyleTableRecord
  2
Text Style2
 70
     0
 40
0.0
 41
1.0
 50
0.0
 71
     0
 42
0.2
  3
Aigdt___.ttf
  4

1001
ACAD
1000
AIGDT
1071
      514
  0
STYLE
  5
68
330
3
100
AcDbSymbolTableRecord
100
AcDbTextStyleTableRecord
  2
Text Style3
 70
     0
 40
0.0
 41
1.0
 50
0.0
 71
     0
 42
0.2
  3
TIMES.TTF
  4

1001
ACAD
1000
Times New Roman
1071
      256
  0
STYLE
  5
69
330
3
100
AcDbSymbolTableRecord
100
AcDbTextStyleTableRecord
  2
Text Style4
 70
     0
 40
0.0
 41
1.0
 50
0.0
 71
     0
 42
0.2
  3
TIMES.TTF
  4

1001
ACAD
1000
Times New Roman
1071
      256
  0
STYLE
  5
6A
330
3
100
AcDbSymbolTableRecord
100
AcDbTextStyleTableRecord
  2
Text Style5
 70
     0
 40
0.0
 41
1.0
 50
0.0
 71
     0
 42
0.2
  3
ARIAL.TTF
  4

1001
ACAD
1000
Arial
1071
      256
  0
STYLE
  5
6B
330
3
100
AcDbSymbolTableRecord
100
AcDbTextStyleTableRecord
  2
Text Style6
 70
     0
 40
0.0
 41
1.0
 50
0.0
 71
     0
 42
0.2
  3
ARIAL.TTF
  4

1001
ACAD
1000
Arial
1071
      256
  0
STYLE
  5
6C
330
3
100
AcDbSymbolTableRecord
100
AcDbTextStyleTableRecord
  2
Text Style7
 70
     0
 40
0.0
 41
1.0
 50
0.0
 71
     0
 42
0.2
  3
ARIAL.TTF
  4

1001
ACAD
1000
Arial
1071
      256
  0
STYLE
  5
6D
330
3
100
AcDbSymbolTableRecord
100
AcDbTextStyleTableRecord
  2
Text Style8
 70
     0
 40
0.0
 41
1.0
 50
0.0
 71
     0
 42
0.2
  3
ARIAL.TTF
  4

1001
ACAD
1000
Arial
1071
      256
  0
STYLE
  5
6E
330
3
100
AcDbSymbolTableRecord
100
AcDbTextStyleTableRecord
  2
Text Style9
 70
     0
 40
0.0
 41
1.0
 50
0.0
 71
     0
 42
0.2
  3
ARIAL.TTF
  4

1001
ACAD
1000
Arial
1071
      256
  0
STYLE
  5
6F
330
3
100
AcDbSymbolTableRecord
100
AcDbTextStyleTableRecord
  2
Text Style10
 70
     0
 40
0.0
 41
1.0
 50
0.0
 71
     0
 42
0.2
  3
ARIAL.TTF
  4

1001
ACAD
1000
Arial
1071
      256
  0
STYLE
  5
70
330
3
100
AcDbSymbolTableRecord
100
AcDbTextStyleTableRecord
  2
Text Style11
 70
     0
 40
0.0
 41
1.0
 50
0.0
 71
     0
 42
0.2
  3
ARIAL.TTF
  4

1001
ACAD
1000
Arial
1071
      256
  0
STYLE
  5
71
330
3
100
AcDbSymbolTableRecord
100
AcDbTextStyleTableRecord
  2
Text Style12
 70
     0
 40
0.0
 41
1.0
 50
0.0
 71
     0
 42
0.2
  3
Aigdt___.ttf
  4

1001
ACAD
1000
AIGDT
1071
      514
  0
STYLE
  5
72
330
3
100
AcDbSymbolTableRecord
100
AcDbTextStyleTableRecord
  2
Text Style13
 70
     0
 40
0.0
 41
1.0
 50
0.0
 71
     0
 42
0.2
  3
ARIAL.TTF
  4

1001
ACAD
1000
Arial
1071
      256
  0
STYLE
  5
73
330
3
100
AcDbSymbolTableRecord
100
AcDbTextStyleTableRecord
  2
Text Style14
 70
     0
 40
0.0
 41
1.0
 50
0.0
 71
     0
 42
0.2
  3
ARIAL.TTF
  4

1001
ACAD
1000
Arial
1071
      256
  0
STYLE
  5
74
330
3
100
AcDbSymbolTableRecord
100
AcDbTextStyleTableRecord
  2
Text Style15
 70
     0
 40
0.0
 41
1.0
 50
0.0
 71
     0
 42
0.2
  3
ARIAL.TTF
  4

1001
ACAD
1000
Arial
1071
      256
  0
STYLE
  5
75
330
3
100
AcDbSymbolTableRecord
100
AcDbTextStyleTableRecord
  2
Text Style16
 70
     0
 40
0.0
 41
1.0
 50
0.0
 71
     0
 42
0.2
  3
ARIAL.TTF
  4

1001
ACAD
1000
Arial
1071
      256
  0
STYLE
  5
76
330
3
100
AcDbSymbolTableRecord
100
AcDbTextStyleTableRecord
  2
Text Style17
 70
     0
 40
0.0
 41
1.0
 50
0.0
 71
     0
 42
0.2
  3
ARIAL.TTF
  4

1001
ACAD
1000
Arial
1071
      256
  0
STYLE
  5
77
330
3
100
AcDbSymbolTableRecord
100
AcDbTextStyleTableRecord
  2
Text Style18
 70
     0
 40
0.0
 41
1.0
 50
0.0
 71
     0
 42
0.2
  3
ARIAL.TTF
  4

1001
ACAD
1000
Arial
1071
      256
  0
STYLE
  5
78
330
3
100
AcDbSymbolTableRecord
100
AcDbTextStyleTableRecord
  2
Text Style19
 70
     0
 40
0.0
 41
1.0
 50
0.0
 71
     0
 42
0.2
  3
ARIAL.TTF
  4

1001
ACAD
1000
Arial
1071
      256
  0
STYLE
  5
79
330
3
100
AcDbSymbolTableRecord
100
AcDbTextStyleTableRecord
  2
Text Style20
 70
     0
 40
0.0
 41
1.0
 50
0.0
 71
     0
 42
0.2
  3
Aigdt___.ttf
  4

1001
ACAD
1000
AIGDT
1071
      514
  0
STYLE
  5
7A
330
3
100
AcDbSymbolTableRecord
100
AcDbTextStyleTableRecord
  2
Text Style21
 70
     0
 40
0.0
 41
1.0
 50
0.0
 71
     0
 42
0.2
  3
ARIAL.TTF
  4

1001
ACAD
1000
Arial
1071
      256
  0
STYLE
  5
7B
330
3
100
AcDbSymbolTableRecord
100
AcDbTextStyleTableRecord
  2
Text Style22
 70
     0
 40
0.0
 41
1.0
 50
0.0
 71
     0
 42
0.2
  3
ARIAL.TTF
  4

1001
ACAD
1000
Arial
1071
      256
  0
STYLE
  5
7C
330
3
100
AcDbSymbolTableRecord
100
AcDbTextStyleTableRecord
  2
Text Style23
 70
     0
 40
0.0
 41
1.0
 50
0.0
 71
     0
 42
0.2
  3
Aigdt___.ttf
  4

1001
ACAD
1000
AIGDT
1071
      514
  0
STYLE
  5
7D
330
3
100
AcDbSymbolTableRecord
100
AcDbTextStyleTableRecord
  2
Text Style24
 70
     0
 40
0.0
 41
1.0
 50
0.0
 71
     0
 42
0.2
  3
ARIAL.TTF
  4

1001
ACAD
1000
Arial
1071
      256
  0
STYLE
  5
7E
330
3
100
AcDbSymbolTableRecord
100
AcDbTextStyleTableRecord
  2
Text Style25
 70
     0
 40
0.0
 41
1.0
 50
0.0
 71
     0
 42
0.2
  3
ARIAL.TTF
  4

1001
ACAD
1000
Arial
1071
      256
  0
STYLE
  5
7F
330
3
100
AcDbSymbolTableRecord
100
AcDbTextStyleTableRecord
  2
Text Style26
 70
     0
 40
0.0
 41
1.0
 50
0.0
 71
     0
 42
0.2
  3
Aigdt___.ttf
  4

1001
ACAD
1000
AIGDT
1071
      514
  0
STYLE
  5
80
330
3
100
AcDbSymbolTableRecord
100
AcDbTextStyleTableRecord
  2
Text Style27
 70
     0
 40
0.0
 41
1.0
 50
0.0
 71
     0
 42
0.2
  3
ARIAL.TTF
  4

1001
ACAD
1000
Arial
1071
      256
  0
STYLE
  5
81
330
3
100
AcDbSymbolTableRecord
100
AcDbTextStyleTableRecord
  2
Text Style28
 70
     0
 40
0.0
 41
1.0
 50
0.0
 71
     0
 42
0.2
  3
Aigdt___.ttf
  4

1001
ACAD
1000
AIGDT
1071
      514
  0
STYLE
  5
82
330
3
100
AcDbSymbolTableRecord
100
AcDbTextStyleTableRecord
  2
Text Style29
 70
     0
 40
0.0
 41
1.0
 50
0.0
 71
     0
 42
0.2
  3
ARIAL.TTF
  4

1001
ACAD
1000
Arial
1071
      256
  0
STYLE
  5
83
330
3
100
AcDbSymbolTableRecord
100
AcDbTextStyleTableRecord
  2
Text Style30
 70
     0
 40
0.0
 41
1.0
 50
0.0
 71
     0
 42
0.2
  3
ARIAL.TTF
  4

1001
ACAD
1000
Arial
1071
      256
  0
STYLE
  5
84
330
3
100
AcDbSymbolTableRecord
100
AcDbTextStyleTableRecord
  2
Text Style31
 70
     0
 40
0.0
 41
1.0
 50
0.0
 71
     0
 42
0.2
  3
ARIAL.TTF
  4

1001
ACAD
1000
Arial
1071
      256
  0
STYLE
  5
85
330
3
100
AcDbSymbolTableRecord
100
AcDbTextStyleTableRecord
  2
Text Style32
 70
     0
 40
0.0
 41
1.0
 50
0.0
 71
     0
 42
0.2
  3
ARIAL.TTF
  4

1001
ACAD
1000
Arial
1071
      256
  0
STYLE
  5
86
330
3
100
AcDbSymbolTableRecord
100
AcDbTextStyleTableRecord
  2
Text Style33
 70
     0
 40
0.0
 41
1.0
 50
0.0
 71
     0
 42
0.2
  3
Aigdt___.ttf
  4

1001
ACAD
1000
AIGDT
1071
      514
  0
STYLE
  5
87
330
3
100
AcDbSymbolTableRecord
100
AcDbTextStyleTableRecord
  2
Text Style34
 70
     0
 40
0.0
 41
1.0
 50
0.0
 71
     0
 42
0.2
  3
Aigdt___.ttf
  4

1001
ACAD
1000
AIGDT
1071
      514
  0
STYLE
  5
88
330
3
100
AcDbSymbolTableRecord
100
AcDbTextStyleTableRecord
  2
Text Style35
 70
     0
 40
0.0
 41
0.75
 50
0.0
 71
     0
 42
0.2
  3

  4

  0
STYLE
  5
89
330
3
100
AcDbSymbolTableRecord
100
AcDbTextStyleTableRecord
  2
Text Style36
 70
     0
 40
0.0
 41
0.75
 50
0.0
 71
     0
 42
0.2
  3
Aigdt___.ttf
  4

1001
ACAD
1000
AIGDT
1071
      514
  0
STYLE
  5
8A
330
3
100
AcDbSymbolTableRecord
100
AcDbTextStyleTableRecord
  2
Text Style37
 70
     0
 40
0.0
 41
0.75
 50
0.0
 71
     0
 42
0.2
  3

  4

  0
STYLE
  5
8B
330
3
100
AcDbSymbolTableRecord
100
AcDbTextStyleTableRecord
  2
Text Style38
 70
     0
 40
0.0
 41
0.75
 50
0.0
 71
     0
 42
0.2
  3
isocpeur.ttf
  4

1001
ACAD
1000
ISOCPEUR
1071
      256
  0
STYLE
  5
8C
330
3
100
AcDbSymbolTableRecord
100
AcDbTextStyleTableRecord
  2
Text Style39
 70
     0
 40
0.0
 41
0.75
 50
0.0
 71
     0
 42
0.2
  3
Aigdt___.ttf
  4

1001
ACAD
1000
AIGDT
1071
      514
  0
STYLE
  5
8D
330
3
100
AcDbSymbolTableRecord
100
AcDbTextStyleTableRecord
  2
Text Style40
 70
     0
 40
0.0
 41
0.75
 50
0.0
 71
     0
 42
0.2
  3
isocpeur.ttf
  4

1001
ACAD
1000
ISOCPEUR
1071
      256
  0
STYLE
  5
8E
330
3
100
AcDbSymbolTableRecord
100
AcDbTextStyleTableRecord
  2
Text Style41
 70
     0
 40
0.0
 41
0.75
 50
0.0
 71
     0
 42
0.2
  3
Aigdt___.ttf
  4

1001
ACAD
1000
AIGDT
1071
      514
  0
STYLE
  5
8F
330
3
100
AcDbSymbolTableRecord
100
AcDbTextStyleTableRecord
  2
Text Style42
 70
     0
 40
0.0
 41
0.75
 50
0.0
 71
     0
 42
0.2
  3
isocpeur.ttf
  4

1001
ACAD
1000
ISOCPEUR
1071
      256
  0
STYLE
  5
90
330
3
100
AcDbSymbolTableRecord
100
AcDbTextStyleTableRecord
  2
Text Style43
 70
     0
 40
0.0
 41
0.75
 50
0.0
 71
     0
 42
0.2
  3
isocpeur.ttf
  4

1001
ACAD
1000
ISOCPEUR
1071
      256
  0
STYLE
  5
91
330
3
100
AcDbSymbolTableRecord
100
AcDbTextStyleTableRecord
  2
Text Style44
 70
     0
 40
0.0
 41
0.75
 50
0.0
 71
     0
 42
0.2
  3
Aigdt___.ttf
  4

1001
ACAD
1000
AIGDT
1071
      514
  0
STYLE
  5
92
330
3
100
AcDbSymbolTableRecord
100
AcDbTextStyleTableRecord
  2
Text Style45
 70
     0
 40
0.0
 41
0.75
 50
0.0
 71
     0
 42
0.2
  3
isocpeur.ttf
  4

1001
ACAD
1000
ISOCPEUR
1071
      256
  0
STYLE
  5
93
330
3
100
AcDbSymbolTableRecord
100
AcDbTextStyleTableRecord
  2
Text Style46
 70
     0
 40
0.0
 41
1.0
 50
0.0
 71
     0
 42
0.2
  3
ARIAL.TTF
  4

1001
ACAD
1000
Arial
1071
      256
  0
STYLE
  5
94
330
3
100
AcDbSymbolTableRecord
100
AcDbTextStyleTableRecord
  2
Text Style47
 70
     0
 40
0.0
 41
1.0
 50
0.0
 71
     0
 42
0.2
  3
ARIAL.TTF
  4

1001
ACAD
1000
Arial
1071
      256
  0
STYLE
  5
95
330
3
100
AcDbSymbolTableRecord
100
AcDbTextStyleTableRecord
  2
Text Style48
 70
     0
 40
0.0
 41
1.0
 50
0.0
 71
     0
 42
0.2
  3
ARIAL.TTF
  4

1001
ACAD
1000
Arial
1071
      256
  0
STYLE
  5
96
330
3
100
AcDbSymbolTableRecord
100
AcDbTextStyleTableRecord
  2
Text Style49
 70
     0
 40
0.0
 41
1.0
 50
0.0
 71
     0
 42
0.2
  3
isocpeur.ttf
  4

1001
ACAD
1000
ISOCPEUR
1071
      256
  0
STYLE
  5
97
330
3
100
AcDbSymbolTableRecord
100
AcDbTextStyleTableRecord
  2
Text Style50
 70
     0
 40
0.0
 41
1.0
 50
0.0
 71
     0
 42
0.2
  3
isocpeur.ttf
  4

1001
ACAD
1000
ISOCPEUR
1071
      256
  0
STYLE
  5
98
330
3
100
AcDbSymbolTableRecord
100
AcDbTextStyleTableRecord
  2
Text Style51
 70
     0
 40
0.0
 41
1.0
 50
0.0
 71
     0
 42
0.2
  3
isocpeur.ttf
  4

1001
ACAD
1000
ISOCPEUR
1071
      256
  0
STYLE
  5
99
330
3
100
AcDbSymbolTableRecord
100
AcDbTextStyleTableRecord
  2
Text Style52
 70
     0
 40
0.0
 41
1.0
 50
0.0
 71
     0
 42
0.2
  3
isocp3__.ttf
  4

1001
ACAD
1000
ISOCP3
1071
      256
  0
STYLE
  5
9A
330
3
100
AcDbSymbolTableRecord
100
AcDbTextStyleTableRecord
  2
Text Style53
 70
     0
 40
0.0
 41
1.0
 50
0.0
 71
     0
 42
0.2
  3
isocp3__.ttf
  4

1001
ACAD
1000
ISOCP3
1071
      256
  0
STYLE
  5
9B
330
3
100
AcDbSymbolTableRecord
100
AcDbTextStyleTableRecord
  2
Text Style54
 70
     0
 40
0.0
 41
1.0
 50
0.0
 71
     0
 42
0.2
  3
isocpeur.ttf
  4

1001
ACAD
1000
ISOCPEUR
1071
      256
  0
STYLE
  5
9C
330
3
100
AcDbSymbolTableRecord
100
AcDbTextStyleTableRecord
  2
Text Style55
 70
     0
 40
0.0
 41
1.0
 50
0.0
 71
     0
 42
0.2
  3
Aigdt___.ttf
  4

1001
ACAD
1000
AIGDT
1071
      514
  0
STYLE
  5
9D
330
3
100
AcDbSymbolTableRecord
100
AcDbTextStyleTableRecord
  2
Text Style56
 70
     0
 40
0.0
 41
1.0
 50
0.0
 71
     0
 42
0.2
  3
isocpeur.ttf
  4

1001
ACAD
1000
ISOCPEUR
1071
      256
  0
STYLE
  5
9E
330
3
100
AcDbSymbolTableRecord
100
AcDbTextStyleTableRecord
  2
Text Style57
 70
     0
 40
0.0
 41
1.0
 50
0.0
 71
     0
 42
0.2
  3
isocpeur.ttf
  4

1001
ACAD
1000
ISOCPEUR
1071
      256
  0
STYLE
  5
9F
330
3
100
AcDbSymbolTableRecord
100
AcDbTextStyleTableRecord
  2
Text Style58
 70
     0
 40
0.0
 41
1.0
 50
0.0
 71
     0
 42
0.2
  3
isocpeur.ttf
  4

1001
ACAD
1000
ISOCPEUR
1071
      256
  0
STYLE
  5
A0
330
3
100
AcDbSymbolTableRecord
100
AcDbTextStyleTableRecord
  2
Text Style59
 70
     0
 40
0.0
 41
1.0
 50
0.0
 71
     0
 42
0.2
  3
isocpeur.ttf
  4

1001
ACAD
1000
ISOCPEUR
1071
      256
  0
STYLE
  5
A1
330
3
100
AcDbSymbolTableRecord
100
AcDbTextStyleTableRecord
  2
Text Style60
 70
     0
 40
0.0
 41
1.0
 50
0.0
 71
     0
 42
0.2
  3
Aigdt___.ttf
  4

1001
ACAD
1000
AIGDT
1071
      514
  0
STYLE
  5
A2
330
3
100
AcDbSymbolTableRecord
100
AcDbTextStyleTableRecord
  2
Text Style61
 70
     0
 40
0.0
 41
1.0
 50
0.0
 71
     0
 42
0.2
  3
isocpeur.ttf
  4

1001
ACAD
1000
ISOCPEUR
1071
      256
  0
STYLE
  5
A3
330
3
100
AcDbSymbolTableRecord
100
AcDbTextStyleTableRecord
  2
Text Style62
 70
     0
 40
0.0
 41
1.0
 50
0.0
 71
     0
 42
0.2
  3
isocpeur.ttf
  4

1001
ACAD
1000
ISOCPEUR
1071
      256
  0
STYLE
  5
A4
330
3
100
AcDbSymbolTableRecord
100
AcDbTextStyleTableRecord
  2
Text Style63
 70
     0
 40
0.0
 41
1.0
 50
0.0
 71
     0
 42
0.2
  3
isocpeur.ttf
  4

1001
ACAD
1000
ISOCPEUR
1071
      256
  0
STYLE
  5
A5
330
3
100
AcDbSymbolTableRecord
100
AcDbTextStyleTableRecord
  2
Text Style64
 70
     0
 40
0.0
 41
1.0
 50
0.0
 71
     0
 42
0.2
  3
Aigdt___.ttf
  4

1001
ACAD
1000
AIGDT
1071
      514
  0
STYLE
  5
A6
330
3
100
AcDbSymbolTableRecord
100
AcDbTextStyleTableRecord
  2
Text Style65
 70
     0
 40
0.0
 41
1.0
 50
0.0
 71
     0
 42
0.2
  3
isocpeur.ttf
  4

1001
ACAD
1000
ISOCPEUR
1071
      256
  0
STYLE
  5
A7
330
3
100
AcDbSymbolTableRecord
100
AcDbTextStyleTableRecord
  2
Text Style66
 70
     0
 40
0.0
 41
0.899999976158142
 50
0.0
 71
     0
 42
0.2
  3
isocpeur.ttf
  4

1001
ACAD
1000
ISOCPEUR
1071
      256
  0
STYLE
  5
A8
330
3
100
AcDbSymbolTableRecord
100
AcDbTextStyleTableRecord
  2
Text Style67
 70
     0
 40
0.0
 41
0.899999976158142
 50
0.0
 71
     0
 42
0.2
  3
Aigdt___.ttf
  4

1001
ACAD
1000
AIGDT
1071
      514
  0
STYLE
  5
A9
330
3
100
AcDbSymbolTableRecord
100
AcDbTextStyleTableRecord
  2
Text Style68
 70
     0
 40
0.0
 41
1.0
 50
0.0
 71
     0
 42
0.2
  3
isocpeur.ttf
  4

1001
ACAD
1000
ISOCPEUR
1071
      256
  0
STYLE
  5
AA
330
3
100
AcDbSymbolTableRecord
100
AcDbTextStyleTableRecord
  2
Text Style69
 70
     0
 40
0.0
 41
1.0
 50
0.0
 71
     0
 42
0.2
  3
isocpeur.ttf
  4

1001
ACAD
1000
ISOCPEUR
1071
      256
  0
STYLE
  5
AB
330
3
100
AcDbSymbolTableRecord
100
AcDbTextStyleTableRecord
  2
Text Style70
 70
     0
 40
0.0
 41
1.0
 50
0.0
 71
     0
 42
0.2
  3
isocp___.ttf
  4

1001
ACAD
1000
ISOCP
1071
      256
  0
STYLE
  5
AC
330
3
100
AcDbSymbolTableRecord
100
AcDbTextStyleTableRecord
  2
Text Style71
 70
     0
 40
0.0
 41
1.0
 50
0.0
 71
     0
 42
0.2
  3
isocp___.ttf
  4

1001
ACAD
1000
ISOCP
1071
      256
  0
STYLE
  5
AD
330
3
100
AcDbSymbolTableRecord
100
AcDbTextStyleTableRecord
  2
Text Style72
 70
     0
 40
0.0
 41
1.0
 50
0.0
 71
     0
 42
0.2
  3
isocp___.ttf
  4

1001
ACAD
1000
ISOCP
1071
      256
  0
STYLE
  5
AE
330
3
100
AcDbSymbolTableRecord
100
AcDbTextStyleTableRecord
  2
Text Style73
 70
     0
 40
0.0
 41
1.0
 50
0.0
 71
     0
 42
0.2
  3
isocp___.ttf
  4

1001
ACAD
1000
ISOCP
1071
      256
  0
STYLE
  5
AF
330
3
100
AcDbSymbolTableRecord
100
AcDbTextStyleTableRecord
  2
Text Style74
 70
     0
 40
0.0
 41
1.0
 50
0.0
 71
     0
 42
0.2
  3
isocp___.ttf
  4

1001
ACAD
1000
ISOCP
1071
      256
  0
STYLE
  5
B0
330
3
100
AcDbSymbolTableRecord
100
AcDbTextStyleTableRecord
  2
Text Style75
 70
     0
 40
0.0
 41
1.0
 50
0.0
 71
     0
 42
0.2
  3
isocp___.ttf
  4

1001
ACAD
1000
ISOCP
1071
      256
  0
STYLE
  5
B1
330
3
100
AcDbSymbolTableRecord
100
AcDbTextStyleTableRecord
  2
Text Style76
 70
     0
 40
0.0
 41
1.0
 50
0.0
 71
     0
 42
0.2
  3
isocp___.ttf
  4

1001
ACAD
1000
ISOCP
1071
      256
  0
STYLE
  5
B2
330
3
100
AcDbSymbolTableRecord
100
AcDbTextStyleTableRecord
  2
Text Style77
 70
     0
 40
0.0
 41
1.0
 50
0.0
 71
     0
 42
0.2
  3
Aigdt___.ttf
  4

1001
ACAD
1000
AIGDT
1071
      514
  0
STYLE
  5
B3
330
3
100
AcDbSymbolTableRecord
100
AcDbTextStyleTableRecord
  2
Text Style78
 70
     0
 40
0.0
 41
1.0
 50
0.0
 71
     0
 42
0.2
  3
isocp___.ttf
  4

1001
ACAD
1000
ISOCP
1071
      256
  0
STYLE
  5
B4
330
3
100
AcDbSymbolTableRecord
100
AcDbTextStyleTableRecord
  2
Text Style79
 70
     0
 40
0.0
 41
1.0
 50
0.0
 71
     0
 42
0.2
  3
txt_____.ttf
  4

1001
ACAD
1000
txt
1071
      256
  0
STYLE
  5
B5
330
3
100
AcDbSymbolTableRecord
100
AcDbTextStyleTableRecord
  2
Text Style80
 70
     0
 40
0.0
 41
1.0
 50
0.0
 71
     0
 42
0.2
  3
txt_____.ttf
  4

1001
ACAD
1000
txt
1071
      256
  0
STYLE
  5
B6
330
3
100
AcDbSymbolTableRecord
100
AcDbTextStyleTableRecord
  2
Text Style81
 70
     0
 40
0.0
 41
1.0
 50
0.0
 71
     0
 42
0.2
  3
txt_____.ttf
  4

1001
ACAD
1000
txt
1071
      256
  0
STYLE
  5
B7
330
3
100
AcDbSymbolTableRecord
100
AcDbTextStyleTableRecord
  2
Text Style82
 70
     0
 40
0.0
 41
1.0
 50
0.0
 71
     0
 42
0.2
  3
txt_____.ttf
  4

1001
ACAD
1000
txt
1071
      256
  0
STYLE
  5
B8
330
3
100
AcDbSymbolTableRecord
100
AcDbTextStyleTableRecord
  2
Text Style83
 70
     0
 40
0.0
 41
1.0
 50
0.0
 71
     0
 42
0.2
  3
txt_____.ttf
  4

1001
ACAD
1000
txt
1071
      256
  0
STYLE
  5
B9
330
3
100
AcDbSymbolTableRecord
100
AcDbTextStyleTableRecord
  2
Text Style84
 70
     0
 40
0.0
 41
1.0
 50
0.0
 71
     0
 42
0.2
  3
txt_____.ttf
  4

1001
ACAD
1000
txt
1071
      256
  0
STYLE
  5
BA
330
3
100
AcDbSymbolTableRecord
100
AcDbTextStyleTableRecord
  2
Text Style85
 70
     0
 40
0.0
 41
1.0
 50
0.0
 71
     0
 42
0.2
  3
txt_____.ttf
  4

1001
ACAD
1000
txt
1071
      256
  0
STYLE
  5
BB
330
3
100
AcDbSymbolTableRecord
100
AcDbTextStyleTableRecord
  2
Text Style86
 70
     0
 40
0.0
 41
1.0
 50
0.0
 71
     0
 42
0.2
  3
txt_____.ttf
  4

1001
ACAD
1000
txt
1071
      256
  0
STYLE
  5
BC
330
3
100
AcDbSymbolTableRecord
100
AcDbTextStyleTableRecord
  2
Text Style87
 70
     0
 40
0.0
 41
0.75
 50
0.0
 71
     0
 42
0.2
  3
simplex_.ttf
  4

1001
ACAD
1000
SIMPLEX
1071
      256
  0
STYLE
  5
BD
330
3
100
AcDbSymbolTableRecord
100
AcDbTextStyleTableRecord
  2
Text Style88
 70
     0
 40
0.0
 41
0.75
 50
0.0
 71
     0
 42
0.2
  3
Aigdt___.ttf
  4

1001
ACAD
1000
AIGDT
1071
      514
  0
STYLE
  5
BE
330
3
100
AcDbSymbolTableRecord
100
AcDbTextStyleTableRecord
  2
Text Style89
 70
     0
 40
0.0
 41
0.75
 50
0.0
 71
     0
 42
0.2
  3
simplex_.ttf
  4

1001
ACAD
1000
SIMPLEX
1071
      256
  0
STYLE
  5
BF
330
3
100
AcDbSymbolTableRecord
100
AcDbTextStyleTableRecord
  2
Text Style90
 70
     0
 40
0.0
 41
0.75
 50
0.0
 71
     0
 42
0.2
  3
isocpeur.ttf
  4

1001
ACAD
1000
ISOCPEUR
1071
      256
  0
STYLE
  5
C0
330
3
100
AcDbSymbolTableRecord
100
AcDbTextStyleTableRecord
  2
Text Style91
 70
     0
 40
0.0
 41
0.75
 50
0.0
 71
     0
 42
0.2
  3
isocpeur.ttf
  4

1001
ACAD
1000
ISOCPEUR
1071
      256
  0
STYLE
  5
C1
330
3
100
AcDbSymbolTableRecord
100
AcDbTextStyleTableRecord
  2
Text Style92
 70
     0
 40
0.0
 41
0.6999999880790711
 50
0.0
 71
     0
 42
0.2
  3
txt_____.ttf
  4

1001
ACAD
1000
txt
1071
      256
  0
STYLE
  5
C2
330
3
100
AcDbSymbolTableRecord
100
AcDbTextStyleTableRecord
  2
Text Style93
 70
     0
 40
0.0
 41
0.6999999880790711
 50
0.0
 71
     0
 42
0.2
  3
Aigdt___.ttf
  4

1001
ACAD
1000
AIGDT
1071
      514
  0
STYLE
  5
C3
330
3
100
AcDbSymbolTableRecord
100
AcDbTextStyleTableRecord
  2
Text Style94
 70
     0
 40
0.0
 41
0.6999999880790711
 50
0.0
 71
     0
 42
0.2
  3
txt_____.ttf
  4

1001
ACAD
1000
txt
1071
      256
  0
STYLE
  5
C4
330
3
100
AcDbSymbolTableRecord
100
AcDbTextStyleTableRecord
  2
Text Style95
 70
     0
 40
0.0
 41
0.6999999880790711
 50
0.0
 71
     0
 42
0.2
  3
txt_____.ttf
  4

1001
ACAD
1000
txt
1071
      256
  0
STYLE
  5
C5
330
3
100
AcDbSymbolTableRecord
100
AcDbTextStyleTableRecord
  2
Text Style96
 70
     0
 40
0.0
 41
0.6999999880790711
 50
0.0
 71
     0
 42
0.2
  3
Aigdt___.ttf
  4

1001
ACAD
1000
AIGDT
1071
      514
  0
STYLE
  5
C6
330
3
100
AcDbSymbolTableRecord
100
AcDbTextStyleTableRecord
  2
Text Style97
 70
     0
 40
0.0
 41
0.6999999880790711
 50
0.0
 71
     0
 42
0.2
  3
Aigdt___.ttf
  4

1001
ACAD
1000
AIGDT
1071
      514
  0
STYLE
  5
C7
330
3
100
AcDbSymbolTableRecord
100
AcDbTextStyleTableRecord
  2
Text Style98
 70
     0
 40
0.0
 41
0.6999999880790711
 50
0.0
 71
     0
 42
0.2
  3
txt_____.ttf
  4

1001
ACAD
1000
txt
1071
      256
  0
STYLE
  5
C8
330
3
100
AcDbSymbolTableRecord
100
AcDbTextStyleTableRecord
  2
Text Style99
 70
     0
 40
0.0
 41
0.6999999880790711
 50
0.0
 71
     0
 42
0.2
  3
greeks__.ttf
  4

1001
ACAD
1000
greeks
1071
      256
  0
STYLE
  5
C9
330
3
100
AcDbSymbolTableRecord
100
AcDbTextStyleTableRecord
  2
Text Style100
 70
     0
 40
0.0
 41
0.6999999880790711
 50
0.0
 71
     0
 42
0.2
  3
Aigdt___.ttf
  4

1001
ACAD
1000
AIGDT
1071
      514
  0
STYLE
  5
CA
330
3
100
AcDbSymbolTableRecord
100
AcDbTextStyleTableRecord
  2
Text Style101
 70
     0
 40
0.0
 41
0.6999999880790711
 50
0.0
 71
     0
 42
0.2
  3
greeks__.ttf
  4

1001
ACAD
1000
greeks
1071
      256
  0
STYLE
  5
CB
330
3
100
AcDbSymbolTableRecord
100
AcDbTextStyleTableRecord
  2
Text Style102
 70
     0
 40
0.0
 41
0.6999999880790711
 50
0.0
 71
     0
 42
0.2
  3

  4

1001
ACAD
1000
greeks
1071
 33554688
  0
STYLE
  5
CC
330
3
100
AcDbSymbolTableRecord
100
AcDbTextStyleTableRecord
  2
Text Style103
 70
     0
 40
0.0
 41
0.6999999880790711
 50
0.0
 71
     0
 42
0.2
  3

  4

1001
ACAD
1000
GreekC
1071
 33554688
  0
STYLE
  5
CD
330
3
100
AcDbSymbolTableRecord
100
AcDbTextStyleTableRecord
  2
Text Style104
 70
     0
 40
0.0
 41
0.6999999880790711
 50
0.0
 71
     0
 42
0.2
  3

  4

1001
ACAD
1000
GreekS
1071
 33554688
  0
STYLE
  5
CE
330
3
100
AcDbSymbolTableRecord
100
AcDbTextStyleTableRecord
  2
Text Style105
 70
     0
 40
0.0
 41
0.6999999880790711
 50
0.0
 71
     0
 42
0.2
  3

  4

1001
ACAD
1000
greeks
1071
 33554688
  0
STYLE
  5
CF
330
3
100
AcDbSymbolTableRecord
100
AcDbTextStyleTableRecord
  2
Text Style106
 70
     0
 40
0.0
 41
0.7999999523162842
 50
0.0
 71
     0
 42
0.2
  3
isocpeur.ttf
  4

1001
ACAD
1000
ISOCPEUR
1071
      256
  0
STYLE
  5
D0
330
3
100
AcDbSymbolTableRecord
100
AcDbTextStyleTableRecord
  2
Text Style107
 70
     0
 40
0.0
 41
0.899999976158142
 50
0.0
 71
     0
 42
0.2
  3
isocpeur.ttf
  4

1001
ACAD
1000
ISOCPEUR
1071
      256
  0
STYLE
  5
D1
330
3
100
AcDbSymbolTableRecord
100
AcDbTextStyleTableRecord
  2
Text Style108
 70
     0
 40
0.0
 41
0.899999976158142
 50
0.0
 71
     0
 42
0.2
  3
Aigdt___.ttf
  4

1001
ACAD
1000
AIGDT
1071
      514
  0
STYLE
  5
D2
330
3
100
AcDbSymbolTableRecord
100
AcDbTextStyleTableRecord
  2
Text Style109
 70
     0
 40
0.0
 41
1.0
 50
0.0
 71
     0
 42
0.2
  3
TAHOMA.TTF
  4

1001
ACAD
1000
Tahoma
1071
      256
  0
STYLE
  5
D3
330
3
100
AcDbSymbolTableRecord
100
AcDbTextStyleTableRecord
  2
Text Style110
 70
     0
 40
0.0
 41
0.899999976158142
 50
0.0
 71
     0
 42
0.2
  3
isocpeur.ttf
  4

1001
ACAD
1000
ISOCPEUR
1071
      256
  0
STYLE
  5
D4
330
3
100
AcDbSymbolTableRecord
100
AcDbTextStyleTableRecord
  2
Text Style111
 70
     0
 40
0.0
 41
1.0
 50
0.0
 71
     0
 42
0.2
  3

  4

  0
STYLE
  5
D5
330
3
100
AcDbSymbolTableRecord
100
AcDbTextStyleTableRecord
  2
Text Style112
 70
     0
 40
0.0
 41
1.0
 50
0.0
 71
     0
 42
0.2
  3
simplex_.ttf
  4

1001
ACAD
1000
Simplex
1071
      256
  0
STYLE
  5
D6
330
3
100
AcDbSymbolTableRecord
100
AcDbTextStyleTableRecord
  2
Text Style113
 70
     0
 40
0.0
 41
1.0
 50
0.0
 71
     0
 42
0.2
  3
simplex_.ttf
  4

1001
ACAD
1000
Simplex
1071
      256
  0
STYLE
  5
D7
330
3
100
AcDbSymbolTableRecord
100
AcDbTextStyleTableRecord
  2
Text Style114
 70
     0
 40
0.0
 41
1.0
 50
0.0
 71
     0
 42
0.2
  3

  4

1001
ACAD
1000
Swis721 BdOul BT
1071
 16777472
  0
STYLE
  5
D8
330
3
100
AcDbSymbolTableRecord
100
AcDbTextStyleTableRecord
  2
Text Style115
 70
     0
 40
0.0
 41
1.0
 50
0.0
 71
     0
 42
0.2
  3
isocpeui.ttf
  4

1001
ACAD
1000
ISOCPEUR
1071
 16777472
  0
STYLE
  5
D9
330
3
100
AcDbSymbolTableRecord
100
AcDbTextStyleTableRecord
  2
Text Style116
 70
     0
 40
0.0
 41
1.0
 50
0.0
 71
     0
 42
0.2
  3
swissel.ttf
  4

1001
ACAD
1000
Swis721 LtEx BT
1071
      256
  0
STYLE
  5
DA
330
3
100
AcDbSymbolTableRecord
100
AcDbTextStyleTableRecord
  2
Text Style117
 70
     0
 40
0.0
 41
1.0
 50
0.0
 71
     0
 42
0.2
  3
isocpeur.ttf
  4

1001
ACAD
1000
ISOCPEUR
1071
      256
  0
STYLE
  5
DB
330
3
100
AcDbSymbolTableRecord
100
AcDbTextStyleTableRecord
  2
Text Style118
 70
     0
 40
0.0
 41
1.0
 50
0.0
 71
     0
 42
0.2
  3
swissel.ttf
  4

1001
ACAD
1000
Swis721 LtEx BT
1071
      256
  0
STYLE
  5
DC
330
3
100
AcDbSymbolTableRecord
100
AcDbTextStyleTableRecord
  2
Text Style119
 70
     0
 40
0.0
 41
1.0
 50
0.0
 71
     0
 42
0.2
  3

  4

1001
ACAD
1000
Swis721 BdOul BT
1071
 16777472
  0
STYLE
  5
DD
330
3
100
AcDbSymbolTableRecord
100
AcDbTextStyleTableRecord
  2
Text Style120
 70
     0
 40
0.0
 41
1.0
 50
0.0
 71
     0
 42
0.2
  3
isocpeui.ttf
  4

1001
ACAD
1000
ISOCPEUR
1071
 16777472
  0
STYLE
  5
DE
330
3
100
AcDbSymbolTableRecord
100
AcDbTextStyleTableRecord
  2
Text Style121
 70
     0
 40
0.0
 41
1.0
 50
0.0
 71
     0
 42
0.2
  3
swissel.ttf
  4

1001
ACAD
1000
Swis721 LtEx BT
1071
      256
  0
STYLE
  5
DF
330
3
100
AcDbSymbolTableRecord
100
AcDbTextStyleTableRecord
  2
Text Style122
 70
     0
 40
0.0
 41
1.0
 50
0.0
 71
     0
 42
0.2
  3

  4

1001
ACAD
1000
Swis721 BdOul BT
1071
 16777472
  0
STYLE
  5
E0
330
3
100
AcDbSymbolTableRecord
100
AcDbTextStyleTableRecord
  2
Text Style123
 70
     0
 40
0.0
 41
1.0
 50
0.0
 71
     0
 42
0.2
  3

  4

  0
STYLE
  5
E1
330
3
100
AcDbSymbolTableRecord
100
AcDbTextStyleTableRecord
  2
Text Style124
 70
     0
 40
0.0
 41
1.0
 50
0.0
 71
     0
 42
0.2
  3

  4

1001
ACAD
1000
ISOCPEUR
1071
 50331904
  0
STYLE
  5
E2
330
3
100
AcDbSymbolTableRecord
100
AcDbTextStyleTableRecord
  2
Text Style125
 70
     0
 40
0.0
 41
1.0
 50
0.0
 71
     0
 42
0.2
  3

  4

1001
ACAD
1000
ISOCPEUR
1071
 50331904
  0
STYLE
  5
E3
330
3
100
AcDbSymbolTableRecord
100
AcDbTextStyleTableRecord
  2
Text Style126
 70
     0
 40
0.0
 41
1.0
 50
0.0
 71
     0
 42
0.2
  3
isocpeur.ttf
  4

1001
ACAD
1000
ISOCPEUR
1071
      256
  0
STYLE
  5
108
330
3
100
AcDbSymbolTableRecord
100
AcDbTextStyleTableRecord
  2
Aktuální-ISO
 70
     0
 40
0.0
 41
1.0
 50
0.0
 71
     0
 42
0.2
  3
ARIAL.TTF
  4

1001
ACAD
1000
Arial
1071
      256
  0
STYLE
  5
109
330
3
100
AcDbSymbolTableRecord
100
AcDbTextStyleTableRecord
  2
G
 70
     0
 40
0.0
 41
0.6999999880790711
 50
0.0
 71
     0
 42
0.2
  3
greeks__.ttf
  4

1001
ACAD
1000
greeks
1071
      256
  0
STYLE
  5
10A
330
3
100
AcDbSymbolTableRecord
100
AcDbTextStyleTableRecord
  2
INVENTOR
 70
     0
 40
0.0
 41
1.0
 50
0.0
 71
     0
 42
0.2
  3
isocpeur.ttf
  4

1001
ACAD
1000
ISOCPEUR
1071
      256
  0
STYLE
  5
10B
330
3
100
AcDbSymbolTableRecord
100
AcDbTextStyleTableRecord
  2
SIMPLEX
 70
     0
 40
0.0
 41
0.75
 50
0.0
 71
     0
 42
0.2
  3
simplex_.ttf
  4

1001
ACAD
1000
SIMPLEX
1071
      256
  0
STYLE
  5
10C
330
3
100
AcDbSymbolTableRecord
100
AcDbTextStyleTableRecord
  2
STANDARDSTANDARD
 70
     0
 40
0.0
 41
0.75
 50
0.0
 71
     0
 42
0.2
  3

  4

  0
STYLE
  5
10D
330
3
100
AcDbSymbolTableRecord
100
AcDbTextStyleTableRecord
  2
TextStyle38
 70
     0
 40
0.0
 41
0.75
 50
0.0
 71
     0
 42
0.2
  3
isocpeur.ttf
  4

1001
ACAD
1000
ISOCPEUR
1071
      256
  0
STYLE
  5
10E
330
3
100
AcDbSymbolTableRecord
100
AcDbTextStyleTableRecord
  2
TextStyle40
 70
     0
 40
0.0
 41
0.75
 50
0.0
 71
     0
 42
0.2
  3
isocpeur.ttf
  4

1001
ACAD
1000
ISOCPEUR
1071
      256
  0
STYLE
  5
10F
330
3
100
AcDbSymbolTableRecord
100
AcDbTextStyleTableRecord
  2
TextStyle43
 70
     0
 40
0.0
 41
0.75
 50
0.0
 71
     0
 42
0.2
  3
isocpeur.ttf
  4

1001
ACAD
1000
ISOCPEUR
1071
      256
  0
STYLE
  5
110
330
3
100
AcDbSymbolTableRecord
100
AcDbTextStyleTableRecord
  2
TextStyle59
 70
     0
 40
0.0
 41
1.0
 50
0.0
 71
     0
 42
0.2
  3
isocpeur.ttf
  4

1001
ACAD
1000
ISOCPEUR
1071
      256
  0
STYLE
  5
111
330
3
100
AcDbSymbolTableRecord
100
AcDbTextStyleTableRecord
  2
TextStyle61
 70
     0
 40
0.0
 41
1.0
 50
0.0
 71
     0
 42
0.2
  3
isocpeur.ttf
  4

1001
ACAD
1000
ISOCPEUR
1071
      256
  0
STYLE
  5
112
330
3
100
AcDbSymbolTableRecord
100
AcDbTextStyleTableRecord
  2
TextStyle63
 70
     0
 40
0.0
 41
1.0
 50
0.0
 71
     0
 42
0.2
  3
isocpeur.ttf
  4

1001
ACAD
1000
ISOCPEUR
1071
      256
  0
STYLE
  5
113
330
3
100
AcDbSymbolTableRecord
100
AcDbTextStyleTableRecord
  2
USER1
 70
     0
 40
0.0
 41
0.75
 50
0.0
 71
     0
 42
0.2
  3
isocpeur.ttf
  4

1001
ACAD
1000
ISOCPEUR
1071
      256
  0
STYLE
  5
114
330
3
100
AcDbSymbolTableRecord
100
AcDbTextStyleTableRecord
  2
VÝCHOZÍ-ISO
 70
     0
 40
0.0
 41
1.0
 50
0.0
 71
     0
 42
0.2
  3
ARIAL.TTF
  4

1001
ACAD
1000
Arial
1071
      256
  0
ENDTAB
  0
TABLE
  2
VIEW
  5
6
330
0
100
AcDbSymbolTable
 70
     0
  0
ENDTAB
  0
TABLE
  2
UCS
  5
7
330
0
100
AcDbSymbolTable
 70
     0
  0
ENDTAB
  0
TABLE
  2
APPID
  5
9
330
0
100
AcDbSymbolTable
 70
     1
  0
APPID
  5
12
330
9
100
AcDbSymbolTableRecord
100
AcDbRegAppTableRecord
  2
ACAD
 70
     0
  0
ENDTAB
  0
TABLE
  2
DIMSTYLE
  5
A
330
0
100
AcDbSymbolTable
 70
    35
100
AcDbDimStyleTable
 71
     2
340
11B
340
29
  0
DIMSTYLE
105
29
330
A
100
AcDbSymbolTableRecord
100
AcDbDimStyleTableRecord
  2
Standard
 70
     0
 41
0.1800000071525574
 43
0.3800000000000001
 44
0.18
 45
0.00000001
140
0.1800000071525574
143
0.03937
147
0.09
176
   250
177
   250
178
    18
340
11
371
     0
372
     0
  0
DIMSTYLE
105
115
330
A
100
AcDbSymbolTableRecord
100
AcDbDimStyleTableRecord
  2
AM_ANSI
 70
     0
  4
 mm
 41
0.0999999940395355
 42
0.05
 43
0.5
 44
0.1
 45
0.00000001
 78
     4
 79
     1
140
0.1200000047683716
143
1.0
146
0.7099999453624112
147
0.06
176
     3
177
     3
178
     2
284
     4
340
11
371
     0
372
     0
  0
DIMSTYLE
105
116
330
A
100
AcDbSymbolTableRecord
100
AcDbDimStyleTableRecord
  2
AM_ANSI$3
 70
     0
  4
 mm
 41
0.0999999940395355
 42
0.05
 43
0.5
 44
0.1
 45
0.00000001
 78
     4
 79
     1
140
0.1200000047683716
143
1.0
146
0.7099999453624112
147
0.06
176
     3
177
     3
178
     2
284
     4
340
11
371
     0
372
     0
  0
DIMSTYLE
105
117
330
A
100
AcDbSymbolTableRecord
100
AcDbDimStyleTableRecord
  2
AM_ANSI$4
 70
     0
  4
 mm
 41
0.0999999940395355
 42
0.05
 43
0.5
 44
0.1
 45
0.00000001
 78
     4
 79
     1
140
0.1200000047683716
143
1.0
146
0.7099999453624112
147
0.06
176
     3
177
     3
178
     2
284
     4
340
11
371
     0
372
     0
  0
DIMSTYLE
105
118
330
A
100
AcDbSymbolTableRecord
100
AcDbDimStyleTableRecord
  2
AM_ANSI$7
 70
     0
  4
 mm
 41
0.0999999940395355
 42
0.05
 43
0.5
 44
0.1
 45
0.00000001
 78
     4
 79
     1
140
0.2400000095367432
143
1.0
146
0.7099999453624112
147
0.06
176
     3
177
     3
178
     2
284
     4
340
11
371
     0
372
     0
  0
DIMSTYLE
105
119
330
A
100
AcDbSymbolTableRecord
100
AcDbDimStyleTableRecord
  2
AM_ANSI$SF
 70
     0
  4
 mm
 41
0.0999999940395355
 42
0.05
 43
0.5
 44
0.1
 45
0.00000001
 75
     1
 76
     1
 78
     4
 79
     1
140
0.1200000047683716
143
1.0
146
0.7099999453624112
147
0.06
176
     3
177
     3
178
     2
284
     4
340
11
371
     0
372
     0
  0
DIMSTYLE
105
11A
330
A
100
AcDbSymbolTableRecord
100
AcDbDimStyleTableRecord
  2
AM_ANSI$SH
 70
     0
  4
 mm
 41
0.0999999940395355
 42
0.05
 43
0.5
 44
0.1
 45
0.00000001
 75
     1
 76
     1
 78
     4
 79
     1
140
0.1200000047683716
143
1.0
146
0.7099999453624112
147
0.06
176
     3
177
     3
178
     2
284
     4
340
11
371
     0
372
     0
  0
DIMSTYLE
105
11B
102
{ACAD_REACTORS
330
3DC
330
471
102
}
330
A
100
AcDbSymbolTableRecord
100
AcDbDimStyleTableRecord
  2
AM_CSN
 70
     0
 41
3.5
 42
0.0
 43
10.0
 44
1.0
 45
0.00000001
 73
     0
 74
     0
 77
     1
 78
     8
 79
     2
140
3.5
143
0.03937
146
0.7099999700273786
147
1.5
176
     1
177
     1
178
    18
271
     1
272
     1
278
    44
340
11
371
     0
372
     0
  0
DIMSTYLE
105
11C
330
A
100
AcDbSymbolTableRecord
100
AcDbDimStyleTableRecord
  2
AM_CSN$3
 70
     0
 41
3.5
 42
0.0
 43
10.0
 44
1.0
 45
0.00000001
 73
     0
 77
     1
 78
     8
 79
     2
140
3.5
143
0.03937
146
0.7099999700273786
147
1.5
176
     3
177
     3
178
     2
271
     2
272
     2
278
    44
340
11
371
     0
372
     0
  0
DIMSTYLE
105
11D
330
A
100
AcDbSymbolTableRecord
100
AcDbDimStyleTableRecord
  2
AM_CSN$4
 70
     0
 41
3.5
 42
0.0
 43
10.0
 44
1.0
 45
0.00000001
 73
     0
 77
     1
 78
     8
 79
     2
140
3.5
143
0.03937
146
0.7099999700273786
147
1.5
176
     3
177
     3
178
     2
271
     2
272
     2
278
    44
340
11
371
     0
372
     0
  0
DIMSTYLE
105
11E
330
A
100
AcDbSymbolTableRecord
100
AcDbDimStyleTableRecord
  2
AM_CSN$6
 70
     0
 41
3.5
 42
0.0
 43
10.0
 44
1.0
 45
0.00000001
 73
     0
 74
     0
 78
     8
 79
     2
140
3.5
143
0.03937
146
0.7099999700273786
147
1.5
176
     3
177
     3
178
     2
271
     2
272
     2
278
    44
340
11
371
     0
372
     0
  0
DIMSTYLE
105
11F
330
A
100
AcDbSymbolTableRecord
100
AcDbDimStyleTableRecord
  2
AM_CSN$7
 70
     0
 41
3.5
 42
0.0
 43
10.0
 44
1.0
 45
0.00000001
 73
     0
 74
     0
 77
     1
 78
     8
 79
     2
140
5.0
143
0.03937
146
0.7099999904632569
147
1.5
176
     3
177
     3
178
     2
271
     2
272
     2
278
    44
340
11
371
     0
372
     0
  0
DIMSTYLE
105
120
330
A
100
AcDbSymbolTableRecord
100
AcDbDimStyleTableRecord
  2
AM_CSN$SF
 70
     0
 41
2.5
 42
1.0
 43
10.0
 44
1.0
 45
0.00000001
 73
     0
 74
     0
 75
     1
 76
     1
 77
     1
 78
     8
 79
     2
140
3.5
143
0.03937
146
0.7099999700273786
147
1.5
176
     3
177
     3
178
     2
271
     2
272
     3
340
11
371
     0
372
     0
  0
DIMSTYLE
105
121
330
A
100
AcDbSymbolTableRecord
100
AcDbDimStyleTableRecord
  2
AM_CSN$SH
 70
     0
 41
2.5
 42
1.0
 43
10.0
 44
1.0
 45
0.00000001
 73
     0
 74
     0
 75
     1
 76
     1
 77
     1
 78
     8
 79
     2
140
3.5
143
0.03937
146
0.7099999700273786
147
1.5
176
     3
177
     3
178
     2
271
     2
272
     3
340
11
371
     0
372
     0
  0
DIMSTYLE
105
122
330
A
100
AcDbSymbolTableRecord
100
AcDbDimStyleTableRecord
  2
AM_ISO
 70
     0
 41
2.5
 42
1.0
 43
10.0
 44
1.0
 45
0.00000001
 73
     0
 74
     0
 77
     1
 78
     8
 79
     2
140
3.5
143
0.03937
146
0.7099999700273786
147
1.5
176
     3
177
     3
178
     2
271
     2
272
     3
340
11
371
     0
372
     0
  0
DIMSTYLE
105
123
330
A
100
AcDbSymbolTableRecord
100
AcDbDimStyleTableRecord
  2
AM_ISO$3
 70
     0
 41
2.5
 42
1.0
 43
10.0
 44
1.0
 45
0.00000001
 73
     0
 77
     1
 78
     8
 79
     2
140
3.5
143
0.03937
146
0.7099999700273786
147
1.5
176
     3
177
     3
178
     2
271
     2
272
     3
340
11
371
     0
372
     0
  0
DIMSTYLE
105
124
330
A
100
AcDbSymbolTableRecord
100
AcDbDimStyleTableRecord
  2
AM_ISO$4
 70
     0
 41
2.5
 42
1.0
 43
10.0
 44
1.0
 45
0.00000001
 73
     0
 77
     1
 78
     8
 79
     2
140
3.5
143
0.03937
146
0.7099999700273786
147
1.5
176
     3
177
     3
178
     2
271
     2
272
     3
340
11
371
     0
372
     0
  0
DIMSTYLE
105
125
330
A
100
AcDbSymbolTableRecord
100
AcDbDimStyleTableRecord
  2
AM_ISO$6
 70
     0
 41
2.5
 42
1.0
 43
10.0
 44
1.0
 45
0.00000001
 73
     0
 74
     0
 78
     8
 79
     2
140
3.5
143
0.03937
146
0.7099999700273786
147
1.5
176
     3
177
     3
178
     2
271
     2
272
     3
340
11
371
     0
372
     0
  0
DIMSTYLE
105
126
330
A
100
AcDbSymbolTableRecord
100
AcDbDimStyleTableRecord
  2
AM_ISO$7
 70
     0
 41
2.5
 42
1.0
 43
10.0
 44
1.0
 45
0.00000001
 73
     0
 74
     0
 77
     1
 78
     8
 79
     2
140
5.0
143
0.03937
146
0.7099999904632569
147
1.5
176
     3
177
     3
178
     2
271
     2
272
     3
340
11
371
     0
372
     0
  0
DIMSTYLE
105
127
330
A
100
AcDbSymbolTableRecord
100
AcDbDimStyleTableRecord
  2
AM_ISO$SF
 70
     0
 41
2.5
 42
1.0
 43
10.0
 44
1.0
 45
0.00000001
 73
     0
 74
     0
 75
     1
 76
     1
 77
     1
 78
     8
 79
     2
140
3.5
143
0.03937
146
0.7099999700273786
147
1.5
176
     3
177
     3
178
     2
271
     2
272
     3
340
11
371
     0
372
     0
  0
DIMSTYLE
105
128
330
A
100
AcDbSymbolTableRecord
100
AcDbDimStyleTableRecord
  2
AM_ISO$SH
 70
     0
 41
2.5
 42
1.0
 43
10.0
 44
1.0
 45
0.00000001
 73
     0
 74
     0
 75
     1
 76
     1
 77
     1
 78
     8
 79
     2
140
3.5
143
0.03937
146
0.7099999700273786
147
1.5
176
     3
177
     3
178
     2
271
     2
272
     3
340
11
371
     0
372
     0
  0
DIMSTYLE
105
129
330
A
100
AcDbSymbolTableRecord
100
AcDbDimStyleTableRecord
  2
ISO-25
 70
     0
 41
2.5
 42
0.625
 43
3.75
 44
1.25
 45
0.00000001
 73
     0
 74
     0
 77
     1
 78
     8
 79
     2
140
2.5
143
0.03937
147
0.625
171
     3
176
   250
177
   250
178
    18
271
     2
272
     2
278
    44
284
     8
340
11
371
     0
372
     0
  0
DIMSTYLE
105
12A
330
A
100
AcDbSymbolTableRecord
100
AcDbDimStyleTableRecord
  2
PLNA-3
 70
     0
 41
3.0
 42
0.0
 43
5.999999999999999
 44
1.175
 45
0.00000001
 46
10.0
 73
     0
 74
     0
 77
     1
 78
     8
 79
     2
140
3.5
143
0.03937
147
0.762
171
     3
176
     1
177
     1
178
    18
179
     1
271
     1
272
     1
278
    44
284
     8
340
11
371
    15
372
    15
  0
DIMSTYLE
105
12B
330
A
100
AcDbSymbolTableRecord
100
AcDbDimStyleTableRecord
  2
PROFI_CSN
 70
     0
 41
3.0
 42
0.0
 43
8.0
 44
1.0
 45
0.00000001
 46
1.0
 73
     0
 74
     0
 77
     1
 78
     8
 79
     2
140
3.5
143
0.03937
146
0.5999999727521625
147
1.5
176
     3
177
     3
178
    18
271
     2
272
     2
284
     8
340
11
371
     0
372
     0
  0
DIMSTYLE
105
12C
330
A
100
AcDbSymbolTableRecord
100
AcDbDimStyleTableRecord
  2
VÝCHOZÍ-ISO
 70
     0
 41
2.5
 42
0.0
 43
5.999999999999999
 44
3.174999999999999
 45
0.00000001
 46
10.0
 73
     0
 74
     0
 77
     1
140
3.5
143
0.03937
147
0.762
171
     3
176
   179
177
   179
178
   179
179
     2
271
     2
272
     2
278
    44
340
11
371
    25
372
    25
  0
DIMSTYLE
105
12D
330
A
100
AcDbSymbolTableRecord
100
AcDbDimStyleTableRecord
  2
VÝCHOZÍ-ISO - Metoda 1b
 70
     0
 41
2.5
 42
0.0
 43
5.999999999999999
 44
3.174999999999999
 45
0.00000001
 46
10.0
 73
     0
 77
     1
140
3.5
143
0.03937
147
0.762
171
     3
176
   250
177
   250
178
   250
179
     2
271
     2
272
     2
278
    44
284
     8
340
11
371
    25
372
    25
  0
DIMSTYLE
105
12E
330
A
100
AcDbSymbolTableRecord
100
AcDbDimStyleTableRecord
  2
VÝCHOZÍ-ISO - Metoda 2a
 70
     0
 41
2.5
 42
0.0
 43
5.999999999999999
 44
3.174999999999999
 45
0.00000001
 46
10.0
140
3.5
143
0.03937
147
0.762
171
     3
176
   250
177
   250
178
   250
179
     2
271
     2
272
     2
278
    44
284
     8
340
11
371
    25
372
    25
  0
DIMSTYLE
105
12F
330
A
100
AcDbSymbolTableRecord
100
AcDbDimStyleTableRecord
  2
VÝCHOZÍ-ISO - Metoda 2b
 70
     0
 41
2.5
 42
0.0
 43
5.999999999999999
 44
3.174999999999999
 45
0.00000001
 46
10.0
140
3.5
143
0.03937
147
0.762
171
     3
176
   250
177
   250
178
   250
179
     2
271
     2
272
     2
278
    44
284
     8
340
11
371
    25
372
    25
  0
DIMSTYLE
105
130
330
A
100
AcDbSymbolTableRecord
100
AcDbDimStyleTableRecord
  2
X.X velká mezera & text
 70
     0
 41
5.0
 42
0.0
 43
5.999999999999999
 44
1.175
 45
0.00000001
 46
10.0
 73
     0
 74
     0
 77
     1
 78
     8
 79
     2
140
3.5
143
0.03937
147
0.762
171
     3
176
    96
177
    96
178
    11
179
     2
271
     2
272
     1
278
    44
284
     8
340
11
343
131
344
131
371
    25
372
    25
  0
DIMSTYLE
105
137
330
A
100
AcDbSymbolTableRecord
100
AcDbDimStyleTableRecord
  2
X.XXX
 70
     0
 41
2.5
 42
0.0
 43
5.999999999999999
 44
3.174999999999999
 45
0.00000001
 46
10.0
 73
     0
 74
     0
 77
     1
 78
     4
 79
     1
140
3.5
143
0.03937
147
0.762
171
     3
176
   179
177
   179
178
   250
179
     3
271
     3
272
     2
275
     1
278
    44
284
     8
340
11
371
    25
372
    25
  0
DIMSTYLE
105
138
330
A
100
AcDbSymbolTableRecord
100
AcDbDimStyleTableRecord
  2
X.XXX + - tolerance
 70
     0
 41
2.5
 42
0.0
 43
5.999999999999999
 44
3.174999999999999
 45
0.00000001
 46
10.0
 71
     1
 73
     0
 74
     0
 77
     1
 78
     4
 79
     1
140
3.5
143
0.03937
147
0.762
171
     3
176
   179
177
   179
178
   250
179
     3
271
     3
272
     3
275
     1
278
    44
284
     8
340
11
371
    25
372
    25
  0
DIMSTYLE
105
139
330
A
100
AcDbSymbolTableRecord
100
AcDbDimStyleTableRecord
  2
X.XXX +tolerance -tolerance
 70
     0
 41
2.5
 42
0.0
 43
5.999999999999999
 44
3.174999999999999
 45
0.00000001
 46
10.0
 48
0.000000001
 71
     1
 73
     0
 74
     0
 77
     1
 78
     4
 79
     1
140
3.5
143
0.03937
147
0.762
171
     3
176
   179
177
   179
178
   250
179
     3
271
     3
272
     3
275
     1
278
    44
284
     8
340
11
371
    25
372
    25
  0
DIMSTYLE
105
13A
330
A
100
AcDbSymbolTableRecord
100
AcDbDimStyleTableRecord
  2
X.XXX malá tolerance
 70
     0
 41
2.5
 42
0.0
 43
5.999999999999999
 44
3.174999999999999
 45
0.00000001
 46
10.0
 71
     1
 73
     0
 74
     0
 77
     1
 78
     4
 79
     1
140
3.5
143
0.03937
146
0.7142857142857144
147
0.762
171
     3
176
   179
177
   179
178
   250
179
     3
271
     3
272
     3
275
     1
278
    44
284
     8
340
11
371
    25
372
    25
  0
DIMSTYLE
105
13B
330
A
100
AcDbSymbolTableRecord
100
AcDbDimStyleTableRecord
  2
X.XXX mm [palce]
 70
     0
  4
 in
 41
2.5
 42
0.0
 43
5.999999999999999
 44
3.174999999999999
 45
0.00000001
 46
10.0
 73
     0
 74
     0
 77
     1
 78
     4
 79
     1
140
3.5
143
0.03937
147
0.762
170
     1
171
     3
176
   179
177
   179
178
   250
179
     3
271
     3
272
     2
275
     1
278
    44
284
     8
285
     8
286
     8
340
11
371
    25
372
    25
  0
DIMSTYLE
105
13C
330
A
100
AcDbSymbolTableRecord
100
AcDbDimStyleTableRecord
  2
X.XXX polměr
 70
     0
 41
2.5
 42
0.0
 43
5.999999999999999
 44
3.174999999999999
 45
0.00000001
 46
10.0
 73
     0
 74
     0
 77
     1
 78
     4
 79
     1
140
3.5
143
0.03937
147
0.762
171
     3
176
   179
177
   179
178
   250
179
     3
271
     3
272
     2
275
     1
284
     8
340
11
371
    25
372
    25
  0
ENDTAB
  0
TABLE
  2
BLOCK_RECORD
  5
1
330
0
100
AcDbSymbolTable
 70
    57
  0
BLOCK_RECORD
  5
21
330
1
100
AcDbSymbolTableRecord
100
AcDbBlockTableRecord
  2
*Model_Space
340
24
  0
BLOCK_RECORD
  5
1D
330
1
100
AcDbSymbolTableRecord
100
AcDbBlockTableRecord
  2
*Paper_Space
340
20
  0
BLOCK_RECORD
  5
25
330
1
100
AcDbSymbolTableRecord
100
AcDbBlockTableRecord
  2
*Paper_Space0
340
28
  0
BLOCK_RECORD
  5
131
330
1
100
AcDbSymbolTableRecord
100
AcDbBlockTableRecord
  2
_Open
340
0
  0
BLOCK_RECORD
  5
13D
330
1
100
AcDbSymbolTableRecord
100
AcDbBlockTableRecord
  2
Reklamace
340
0
  0
BLOCK_RECORD
  5
147
330
1
100
AcDbSymbolTableRecord
100
AcDbBlockTableRecord
  2
Hmotnost
340
0
  0
BLOCK_RECORD
  5
14D
330
1
100
AcDbSymbolTableRecord
100
AcDbBlockTableRecord
  2
Rozvinutá délka
340
0
  0
BLOCK_RECORD
  5
153
330
1
100
AcDbSymbolTableRecord
100
AcDbBlockTableRecord
  2
Pro svarek
340
0
  0
BLOCK_RECORD
  5
157
330
1
100
AcDbSymbolTableRecord
100
AcDbBlockTableRecord
  2
Nt.tm.
340
0
  0
BLOCK_RECORD
  5
15C
330
1
100
AcDbSymbolTableRecord
100
AcDbBlockTableRecord
  2
Nt.
340
0
  0
BLOCK_RECORD
  5
161
330
1
100
AcDbSymbolTableRecord
100
AcDbBlockTableRecord
  2
2_B
340
0
  0
BLOCK_RECORD
  5
169
330
1
100
AcDbSymbolTableRecord
100
AcDbBlockTableRecord
  2
3_B
340
0
  0
BLOCK_RECORD
  5
171
330
1
100
AcDbSymbolTableRecord
100
AcDbBlockTableRecord
  2
PRO OPRACOVANI
340
0
  0
BLOCK_RECORD
  5
175
330
1
100
AcDbSymbolTableRecord
100
AcDbBlockTableRecord
  2
PRO SVAROVANI
340
0
  0
BLOCK_RECORD
  5
179
330
1
100
AcDbSymbolTableRecord
100
AcDbBlockTableRecord
  2
ČERNĚNO
340
0
  0
BLOCK_RECORD
  5
17D
330
1
100
AcDbSymbolTableRecord
100
AcDbBlockTableRecord
  2
RAZITKO-CELNI OZUBENI
340
0
  0
BLOCK_RECORD
  5
1EA
330
1
100
AcDbSymbolTableRecord
100
AcDbBlockTableRecord
  2
RAZITKO-RETEZOVE KOLO
340
0
  0
BLOCK_RECORD
  5
1FD
330
1
100
AcDbSymbolTableRecord
100
AcDbBlockTableRecord
  2
2_B-otočená
340
0
  0
BLOCK_RECORD
  5
205
330
1
100
AcDbSymbolTableRecord
100
AcDbBlockTableRecord
  2
3_B-otočená
340
0
  0
BLOCK_RECORD
  5
20D
330
1
100
AcDbSymbolTableRecord
100
AcDbBlockTableRecord
  2
ŠD
340
0
  0
BLOCK_RECORD
  5
213
330
1
100
AcDbSymbolTableRecord
100
AcDbBlockTableRecord
  2
ŠN
340
0
  0
BLOCK_RECORD
  5
219
330
1
100
AcDbSymbolTableRecord
100
AcDbBlockTableRecord
  2
ŠP
340
0
  0
BLOCK_RECORD
  5
21F
330
1
100
AcDbSymbolTableRecord
100
AcDbBlockTableRecord
  2
ŠL
340
0
  0
BLOCK_RECORD
  5
225
330
1
100
AcDbSymbolTableRecord
100
AcDbBlockTableRecord
  2
Č. plochy
340
0
  0
BLOCK_RECORD
  5
22A
330
1
100
AcDbSymbolTableRecord
100
AcDbBlockTableRecord
  2
Otočeno
340
0
  0
BLOCK_RECORD
  5
230
330
1
100
AcDbSymbolTableRecord
100
AcDbBlockTableRecord
  2
základna
340
0
  0
BLOCK_RECORD
  5
23B
330
1
100
AcDbSymbolTableRecord
100
AcDbBlockTableRecord
  2
Řez nahoru pravý
340
0
  0
BLOCK_RECORD
  5
244
330
1
100
AcDbSymbolTableRecord
100
AcDbBlockTableRecord
  2
Řez nahoru levý
340
0
  0
BLOCK_RECORD
  5
24D
330
1
100
AcDbSymbolTableRecord
100
AcDbBlockTableRecord
  2
Řez doleva horní
340
0
  0
BLOCK_RECORD
  5
256
330
1
100
AcDbSymbolTableRecord
100
AcDbBlockTableRecord
  2
Řez doleva spodní
340
0
  0
BLOCK_RECORD
  5
25F
330
1
100
AcDbSymbolTableRecord
100
AcDbBlockTableRecord
  2
Řez doprava horní
340
0
  0
BLOCK_RECORD
  5
268
330
1
100
AcDbSymbolTableRecord
100
AcDbBlockTableRecord
  2
Řez doprava spodní
340
0
  0
BLOCK_RECORD
  5
271
330
1
100
AcDbSymbolTableRecord
100
AcDbBlockTableRecord
  2
Řez dolů pravý
340
0
  0
BLOCK_RECORD
  5
27A
330
1
100
AcDbSymbolTableRecord
100
AcDbBlockTableRecord
  2
Řez dolů levý
340
0
  0
BLOCK_RECORD
  5
283
330
1
100
AcDbSymbolTableRecord
100
AcDbBlockTableRecord
  2
Značka pohledu
340
0
  0
BLOCK_RECORD
  5
287
330
1
100
AcDbSymbolTableRecord
100
AcDbBlockTableRecord
  2
Označení osy
340
0
  0
BLOCK_RECORD
  5
28B
330
1
100
AcDbSymbolTableRecord
100
AcDbBlockTableRecord
  2
Průměr
340
0
  0
BLOCK_RECORD
  5
28F
330
1
100
AcDbSymbolTableRecord
100
AcDbBlockTableRecord
  2
5_B
340
0
  0
BLOCK_RECORD
  5
297
330
1
100
AcDbSymbolTableRecord
100
AcDbBlockTableRecord
  2
Odkaz na který díl
340
0
  0
BLOCK_RECORD
  5
29B
330
1
100
AcDbSymbolTableRecord
100
AcDbBlockTableRecord
  2
Číslo díry
340
0
  0
BLOCK_RECORD
  5
29F
330
1
100
AcDbSymbolTableRecord
100
AcDbBlockTableRecord
  2
ŠP-s textem
340
0
  0
BLOCK_RECORD
  5
2A6
330
1
100
AcDbSymbolTableRecord
100
AcDbBlockTableRecord
  2
ŠL-s textem
340
0
  0
BLOCK_RECORD
  5
2AD
330
1
100
AcDbSymbolTableRecord
100
AcDbBlockTableRecord
  2
POLOMĚR OHYBU R2
340
0
  0
BLOCK_RECORD
  5
2B1
330
1
100
AcDbSymbolTableRecord
100
AcDbBlockTableRecord
  2
Rozvin dle DXF
340
0
  0
BLOCK_RECORD
  5
2B6
330
1
100
AcDbSymbolTableRecord
100
AcDbBlockTableRecord
  2
POLOMĚR OHYBU 1_5
340
0
  0
BLOCK_RECORD
  5
2BA
330
1
100
AcDbSymbolTableRecord
100
AcDbBlockTableRecord
  2
ROZVINUTÝ TVAR
340
0
  0
BLOCK_RECORD
  5
2BE
330
1
100
AcDbSymbolTableRecord
100
AcDbBlockTableRecord
  2
KOMAXIT
340
0
  0
BLOCK_RECORD
  5
2C3
330
1
100
AcDbSymbolTableRecord
100
AcDbBlockTableRecord
  2
Borders Default Border
340
0
  0
BLOCK_RECORD
  5
2EB
330
1
100
AcDbSymbolTableRecord
100
AcDbBlockTableRecord
  2
Title Blocks STA
340
0
  0
BLOCK_RECORD
  5
370
330
1
100
AcDbSymbolTableRecord
100
AcDbBlockTableRecord
  2
2dTransSection0
340
0
  0
BLOCK_RECORD
  5
3CF
330
1
100
AcDbSymbolTableRecord
100
AcDbBlockTableRecord
  2
2dTransSymbol1
340
0
  0
BLOCK_RECORD
  5
4FF
330
1
100
AcDbSymbolTableRecord
100
AcDbBlockTableRecord
  2
Rozpiska359722721
340
0
  0
BLOCK_RECORD
  5
52B
330
1
100
AcDbSymbolTableRecord
100
AcDbBlockTableRecord
  2
2dTransSymbol2
340
0
  0
BLOCK_RECORD
  5
53D
330
1
100
AcDbSymbolTableRecord
100
AcDbBlockTableRecord
  2
2dTransSymbol3
340
0
  0
BLOCK_RECORD
  5
54F
330
1
100
AcDbSymbolTableRecord
100
AcDbBlockTableRecord
  2
2dTransSymbol4
340
0
  0
BLOCK_RECORD
  5
56A
330
1
100
AcDbSymbolTableRecord
100
AcDbBlockTableRecord
  2
*D55
340
0
  0
BLOCK_RECORD
  5
576
330
1
100
AcDbSymbolTableRecord
100
AcDbBlockTableRecord
  2
*D56
340
0
  0
ENDTAB
  0
ENDSEC
  0
SECTION
  2
BLOCKS
  0
BLOCK
  5
22
330
21
100
AcDbEntity
  8
0
100
AcDbBlockBegin
  2
*Model_Space
 70
     0
 10
0.0
 20
0.0
 30
0.0
  3
*Model_Space
  1

  0
ENDBLK
  5
23
330
21
100
AcDbEntity
  8
0
100
AcDbBlockEnd
  0
BLOCK
  5
1E
330
1D
100
AcDbEntity
 67
     1
  8
0
100
AcDbBlockBegin
  2
*Paper_Space
 70
     0
 10
0.0
 20
0.0
 30
0.0
  3
*Paper_Space
  1

  0
ENDBLK
  5
1F
330
1D
100
AcDbEntity
 67
     1
  8
0
100
AcDbBlockEnd
  0
BLOCK
  5
26
330
25
100
AcDbEntity
  8
0
100
AcDbBlockBegin
  2
*Paper_Space0
 70
     0
 10
0.0
 20
0.0
 30
0.0
  3
*Paper_Space0
  1

  0
ENDBLK
  5
27
330
25
100
AcDbEntity
  8
0
100
AcDbBlockEnd
  0
BLOCK
  5
135
330
131
100
AcDbEntity
  8
0
100
AcDbBlockBegin
  2
_Open
 70
     0
 10
0.0
 20
0.0
 30
0.0
  3
_Open
  1

  0
LINE
  5
132
330
131
100
AcDbEntity
  8
0
  6
ByBlock
 62
     0
370
    -2
100
AcDbLine
 10
-10.0
 20
1.666666666666666
 30
0.0
 11
0.0
 21
0.0
 31
0.0
  0
LINE
  5
133
330
131
100
AcDbEntity
  8
0
  6
ByBlock
 62
     0
370
    -2
100
AcDbLine
 10
-10.0
 20
-1.666666666666666
 30
0.0
 11
0.0
 21
0.0
 31
0.0
  0
LINE
  5
134
330
131
100
AcDbEntity
  8
0
  6
ByBlock
 62
     0
370
    -2
100
AcDbLine
 10
0.0
 20
0.0
 30
0.0
 11
-10.0
 21
0.0
 31
0.0
  0
ENDBLK
  5
136
330
131
100
AcDbEntity
  8
0
100
AcDbBlockEnd
  0
BLOCK
  5
13E
330
13D
100
AcDbEntity
  8
0
100
AcDbBlockBegin
  2
Reklamace
 70
     2
 10
165.1207788194048
 20
47.4479264832928
 30
0.0
  3
Reklamace
  1

  0
CIRCLE
  5
140
330
13D
100
AcDbEntity
  8
Čáry náčrtu
 48
0.0
370
    50
100
AcDbCircle
 10
165.1207788194048
 20
47.4479264832928
 30
0.0
 40
1.9646323767493
  0
ATTDEF
  5
141
330
13D
100
AcDbEntity
  8
0
100
AcDbText
 10
164.489247886813
 20
47.952019278063
 30
0.0
 40
2.5
  1
 
 72
     1
 11
165.0450127700082
 21
46.29226042350384
 31
0.0
100
AcDbAttributeDefinition
  3
ZN
  2
ZN
 70
     0
 74
     1
  0
ATTDEF
  5
143
330
13D
100
AcDbEntity
  8
0
100
AcDbText
 10
161.2097634677916
 20
47.86326413406909
 30
0.0
 40
2.5
  1
 
 72
     2
 11
162.321293234182
 21
46.20350527950993
 31
0.0
100
AcDbAttributeDefinition
  3
Kolikrát
  2
Kolikrát
 70
     0
 74
     1
  0
ATTDEF
  5
144
330
13D
100
AcDbEntity
  8
0
100
AcDbText
 10
148.1130480763248
 20
47.92455790436115
 30
0.0
 40
2.5
  1
 
 72
     1
 11
148.66881295952
 21
46.26479904980199
 31
0.0
100
AcDbAttributeDefinition
  3
č. reklamace
  2
č._reklamace
 70
     0
 74
     1
  0
ATTDEF
  5
145
330
13D
100
AcDbEntity
  8
0
100
AcDbText
 10
174.983575000803
 20
47.86326413406909
 30
0.0
 40
2.5
  1
 
 72
     1
 11
175.5393398839982
 21
46.20350527950993
 31
0.0
100
AcDbAttributeDefinition
  3
Datum
  2
Datum
 70
     0
 74
     1
  0
ATTDEF
  5
146
330
13D
100
AcDbEntity
  8
0
100
AcDbText
 10
182.7215328690508
 20
47.93550342460146
 30
0.0
 40
2.5
  1
 
 11
182.7215328690508
 21
46.2757445700423
 31
0.0
100
AcDbAttributeDefinition
  3
Jméno
  2
Jméno
 70
     0
 74
     1
  0
ENDBLK
  5
13F
330
13D
100
AcDbEntity
  8
0
100
AcDbBlockEnd
  0
BLOCK
  5
148
330
147
100
AcDbEntity
  8
0
100
AcDbBlockBegin
  2
Hmotnost
 70
     2
 10
111.71293158531
 20
77.05641532313979
 30
0.0
  3
Hmotnost
  1

  0
MTEXT
  5
14A
330
147
100
AcDbEntity
  8
Text
370
     5
100
AcDbMText
 10
109.9620038688164
 20
75.43187913198284
 30
0.0
 40
2.5
 41
0.0
 71
     7
 72
     1
  1
\fISOCPEUR|b0|i0;\W1.00;\H2.5000;\lkg
 73
     2
 44
0.859967827796936
1001
ACAD
1000
MTEXTBEGIN
1070
    73
1070
     2
1070
    44
1040
0.859967827796936
1070
    74
1070
     0
1000
MTEXTEND
  0
ATTDEF
  5
14C
330
147
100
AcDbEntity
  8
0
100
AcDbText
 10
108.6867039609828
 20
77.84717210023917
 30
0.0
 40
2.5
  1
 
 72
     2
 11
109.7982337273731
 21
76.18741324568
 31
0.0
100
AcDbAttributeDefinition
  3
Hmotnost
  2
Hmotnost
 70
     0
 74
     1
  0
ENDBLK
  5
149
330
147
100
AcDbEntity
  8
0
100
AcDbBlockEnd
  0
BLOCK
  5
14E
330
14D
100
AcDbEntity
  8
0
100
AcDbBlockBegin
  2
Rozvinutá délka
 70
     2
 10
38.91089330752212
 20
90.31445136875538
 30
0.0
  3
Rozvinutá délka
  1

  0
MTEXT
  5
150
330
14D
100
AcDbEntity
  8
Text
370
     5
100
AcDbMText
 10
34.56292013962585
 20
93.09992440917687
 30
0.0
 40
3.499999940395355
 41
0.0
 71
     1
 72
     1
  1
\fAIGDT|b0|i0;\W1.00;\H3.5000;\l/
 73
     2
 44
1.26585030555725
1001
ACAD
1000
MTEXTBEGIN
1070
    73
1070
     2
1070
    44
1040
1.26585030555725
1070
    74
1070
     0
1000
MTEXTEND
  0
ATTDEF
  5
152
330
14D
100
AcDbEntity
  8
0
100
AcDbText
 10
43.87483438550671
 20
90.79747221086575
 30
0.0
 40
3.499999940395355
  1
 
 11
43.87483438550671
 21
88.47380985405466
 31
0.0
100
AcDbAttributeDefinition
  3
Rozvinutá délka
  2
Rozvinutá_délka
 70
     0
 74
     1
  0
ENDBLK
  5
14F
330
14D
100
AcDbEntity
  8
0
100
AcDbBlockEnd
  0
BLOCK
  5
154
330
153
100
AcDbEntity
  8
0
100
AcDbBlockBegin
  2
Pro svarek
 70
     0
 10
42.4850902938472
 20
89.82160512084865
 30
0.0
  3
Pro svarek
  1

  0
MTEXT
  5
156
330
153
100
AcDbEntity
  8
Text
370
     5
100
AcDbMText
 10
28.66366247173417
 20
88.07160515385239
 30
0.0
 40
3.499999940395355
 41
0.0
 71
     7
 72
     1
  1
PRO SVAREK
 73
     2
 44
0.8599677681922912
1001
ACAD
1000
MTEXTBEGIN
1070
    73
1070
     2
1070
    44
1040
0.8599677681922912
1070
    74
1070
     0
1000
MTEXTEND
  0
ENDBLK
  5
155
330
153
100
AcDbEntity
  8
0
100
AcDbBlockEnd
  0
BLOCK
  5
158
330
157
100
AcDbEntity
  8
0
100
AcDbBlockBegin
  2
Nt.tm.
 70
     2
 10
66.92963807911765
 20
100.2311081117949
 30
0.0
  3
Nt.tm.
  1

  0
MTEXT
  5
15A
330
157
100
AcDbEntity
  8
Text
370
     5
100
AcDbMText
 10
60.80626159043204
 20
98.48110814479866
 30
0.0
 40
3.499999940395355
 41
0.0
 71
     7
 72
     1
  1
Nt.tm.
 73
     2
 44
0.8599677681922912
1001
ACAD
1000
MTEXTBEGIN
1070
    73
1070
     2
1070
    44
1040
0.8599677681922912
1070
    74
1070
     0
1000
MTEXTEND
  0
ATTDEF
  5
15B
330
157
100
AcDbEntity
  8
0
100
AcDbText
 10
74.04856429528135
 20
100.8111946026296
 30
0.0
 40
3.499999940395355
  1
 
 11
74.04856429528135
 21
98.48753224581859
 31
0.0
100
AcDbAttributeDefinition
  3
Nátěr
  2
Nátěr
 70
     0
 74
     1
  0
ENDBLK
  5
159
330
157
100
AcDbEntity
  8
0
100
AcDbBlockEnd
  0
BLOCK
  5
15D
330
15C
100
AcDbEntity
  8
0
100
AcDbBlockBegin
  2
Nt.
 70
     2
 10
180.4556748092629
 20
98.50155036164856
 30
0.0
  3
Nt.
  1

  0
MTEXT
  5
15F
330
15C
100
AcDbEntity
  8
Text
370
     5
100
AcDbMText
 10
177.4816489041306
 20
96.75155039465231
 30
0.0
 40
3.499999940395355
 41
0.0
 71
     7
 72
     1
  1
Nt.
 73
     2
 44
0.8599677681922912
1001
ACAD
1000
MTEXTBEGIN
1070
    73
1070
     2
1070
    44
1040
0.8599677681922912
1070
    74
1070
     0
1000
MTEXTEND
  0
ATTDEF
  5
160
330
15C
100
AcDbEntity
  8
0
100
AcDbText
 10
183.8633455643072
 20
99.112453168071
 30
0.0
 40
3.499999940395355
  1
 
 11
183.8633455643072
 21
96.78879081125991
 31
0.0
100
AcDbAttributeDefinition
  3
Nátěr
  2
Nátěr
 70
     0
 74
     1
  0
ENDBLK
  5
15E
330
15C
100
AcDbEntity
  8
0
100
AcDbBlockEnd
  0
BLOCK
  5
162
330
161
100
AcDbEntity
  8
0
100
AcDbBlockBegin
  2
2_B
 70
     0
 10
40.75564047703244
 20
352.1893421246819
 30
0.0
  3
2_B
  1

  0
LINE
  5
164
330
161
100
AcDbEntity
  8
Čáry náčrtu
  6
Continuous
 48
0.0
370
    25
100
AcDbLine
 10
36.75564047703244
 20
354.6893421246819
 30
0.0
 11
44.75564047703243
 21
354.6893421246819
 31
0.0
  0
LINE
  5
165
330
161
100
AcDbEntity
  8
Čáry náčrtu
  6
Continuous
 48
0.0
370
    25
100
AcDbLine
 10
44.75564047703243
 20
354.6893421246819
 30
0.0
 11
44.75564047703243
 21
349.6893421246818
 31
0.0
  0
LINE
  5
166
330
161
100
AcDbEntity
  8
Čáry náčrtu
  6
Continuous
 48
0.0
370
    25
100
AcDbLine
 10
44.75564047703243
 20
349.6893421246818
 30
0.0
 11
36.75564047703244
 21
349.6893421246818
 31
0.0
  0
LINE
  5
167
330
161
100
AcDbEntity
  8
Čáry náčrtu
  6
Continuous
 48
0.0
370
    25
100
AcDbLine
 10
36.75564047703244
 20
349.6893421246818
 30
0.0
 11
36.75564047703244
 21
354.6893421246819
 31
0.0
  0
MTEXT
  5
168
330
161
100
AcDbEntity
  8
Text
370
     5
100
AcDbMText
 10
37.46928191036639
 20
353.8280205937588
 30
0.0
 40
3.000000119209289
 41
0.0
 71
     1
 72
     1
  1
\fISOCPEUR|b0|i0;\W1.00;\H3.0000;\l2/B
 73
     2
 44
0.859967827796936
1001
ACAD
1000
MTEXTBEGIN
1070
    73
1070
     2
1070
    44
1040
0.859967827796936
1070
    74
1070
     0
1000
MTEXTEND
  0
ENDBLK
  5
163
330
161
100
AcDbEntity
  8
0
100
AcDbBlockEnd
  0
BLOCK
  5
16A
330
169
100
AcDbEntity
  8
0
100
AcDbBlockBegin
  2
3_B
 70
     0
 10
54.55841800921195
 20
332.6788271558307
 30
0.0
  3
3_B
  1

  0
LINE
  5
16C
330
169
100
AcDbEntity
  8
Čáry náčrtu
  6
Continuous
 48
0.0
370
    25
100
AcDbLine
 10
50.55841800921196
 20
335.1788271558307
 30
0.0
 11
58.55841800921194
 21
335.1788271558307
 31
0.0
  0
LINE
  5
16D
330
169
100
AcDbEntity
  8
Čáry náčrtu
  6
Continuous
 48
0.0
370
    25
100
AcDbLine
 10
58.55841800921194
 20
335.1788271558307
 30
0.0
 11
58.55841800921196
 21
330.1788271558308
 31
0.0
  0
LINE
  5
16E
330
169
100
AcDbEntity
  8
Čáry náčrtu
  6
Continuous
 48
0.0
370
    25
100
AcDbLine
 10
58.55841800921196
 20
330.1788271558308
 30
0.0
 11
50.55841800921196
 21
330.1788271558308
 31
0.0
  0
LINE
  5
16F
330
169
100
AcDbEntity
  8
Čáry náčrtu
  6
Continuous
 48
0.0
370
    25
100
AcDbLine
 10
50.55841800921196
 20
330.1788271558308
 30
0.0
 11
50.55841800921196
 21
335.1788271558307
 31
0.0
  0
MTEXT
  5
170
330
169
100
AcDbEntity
  8
Text
370
     5
100
AcDbMText
 10
51.3628234053106
 20
334.3166325187742
 30
0.0
 40
3.000000119209289
 41
0.0
 71
     1
 72
     1
  1
\fISOCPEUR|b0|i0;\W1.00;\H3.0000;\l3/B
 73
     2
 44
0.859967827796936
1001
ACAD
1000
MTEXTBEGIN
1070
    73
1070
     2
1070
    44
1040
0.859967827796936
1070
    74
1070
     0
1000
MTEXTEND
  0
ENDBLK
  5
16B
330
169
100
AcDbEntity
  8
0
100
AcDbBlockEnd
  0
BLOCK
  5
172
330
171
100
AcDbEntity
  8
0
100
AcDbBlockBegin
  2
PRO OPRACOVANI
 70
     0
 10
135.6571557884216
 20
395.6410000330038
 30
0.0
  3
PRO OPRACOVANI
  1

  0
MTEXT
  5
174
330
171
100
AcDbEntity
  8
Text
370
     5
100
AcDbMText
 10
116.938
 20
397.391
 30
0.0
 40
3.499999940395355
 41
0.0
 71
     1
 72
     1
  1
PRO OPRACOVANI
 73
     2
 44
0.8599677681922912
1001
ACAD
1000
MTEXTBEGIN
1070
    73
1070
     2
1070
    44
1040
0.8599677681922912
1070
    74
1070
     0
1000
MTEXTEND
  0
ENDBLK
  5
173
330
171
100
AcDbEntity
  8
0
100
AcDbBlockEnd
  0
BLOCK
  5
176
330
175
100
AcDbEntity
  8
0
100
AcDbBlockBegin
  2
PRO SVAROVANI
 70
     0
 10
158.3908313484192
 20
361.9470000330037
 30
0.0
  3
PRO SVAROVANI
  1

  0
MTEXT
  5
178
330
175
100
AcDbEntity
  8
Text
370
     5
100
AcDbMText
 10
140.722
 20
363.697
 30
0.0
 40
3.499999940395355
 41
0.0
 71
     1
 72
     1
  1
PRO SVAROVANI
 73
     2
 44
0.8599677681922912
1001
ACAD
1000
MTEXTBEGIN
1070
    73
1070
     2
1070
    44
1040
0.8599677681922912
1070
    74
1070
     0
1000
MTEXTEND
  0
ENDBLK
  5
177
330
175
100
AcDbEntity
  8
0
100
AcDbBlockEnd
  0
BLOCK
  5
17A
330
179
100
AcDbEntity
  8
0
100
AcDbBlockBegin
  2
ČERNĚNO
 70
     0
 10
314.3749053051664
 20
260.2974859219998
 30
0.0
  3
ČERNĚNO
  1

  0
MTEXT
  5
17C
330
179
100
AcDbEntity
  8
Text
370
     5
100
AcDbMText
 10
305.100554900427
 20
262.747161200476
 30
0.0
 40
3.499999940395355
 41
0.0
 71
     1
 72
     1
  1
ČERNĚNO
 73
     2
 44
0.8599677681922912
1001
ACAD
1000
MTEXTBEGIN
1070
    73
1070
     2
1070
    44
1040
0.8599677681922912
1070
    74
1070
     0
1000
MTEXTEND
  0
ENDBLK
  5
17B
330
179
100
AcDbEntity
  8
0
100
AcDbBlockEnd
  0
BLOCK
  5
17E
330
17D
100
AcDbEntity
  8
0
100
AcDbBlockBegin
  2
RAZITKO-CELNI OZUBENI
 70
     2
 10
-29.5
 20
-82.5
 30
0.0
  3
RAZITKO-CELNI OZUBENI
  1

  0
LINE
  5
180
330
17D
100
AcDbEntity
  8
Čáry náčrtu
 48
0.0
370
    50
100
AcDbLine
 10
-1.0
 20
-145.0
 30
0.0
 11
-58.0
 21
-145.0
 31
0.0
  0
LINE
  5
181
330
17D
100
AcDbEntity
  8
Čáry náčrtu
 48
0.0
370
    50
100
AcDbLine
 10
-18.0
 20
-125.0
 30
0.0
 11
-18.0
 21
-145.0
 31
0.0
  0
LINE
  5
182
330
17D
100
AcDbEntity
  8
Čáry náčrtu
 48
0.0
370
    50
100
AcDbLine
 10
-58.0
 20
-20.0
 30
0.0
 11
-0.9999999999999964
 21
-20.0
 31
0.0
  0
LINE
  5
183
330
17D
100
AcDbEntity
  8
Čáry náčrtu
 48
0.0
370
    50
100
AcDbLine
 10
-58.0
 20
-145.0
 30
0.0
 11
-58.0
 21
-20.0
 31
0.0
  0
LINE
  5
184
330
17D
100
AcDbEntity
  8
Čáry náčrtu
 48
0.0
370
    50
100
AcDbLine
 10
-1.0
 20
-20.0
 30
0.0
 11
-1.0
 21
-145.0
 31
0.0
  0
LINE
  5
185
330
17D
100
AcDbEntity
  8
Čáry náčrtu
 48
0.0
370
    50
100
AcDbLine
 10
-18.0
 20
-20.0
 30
0.0
 11
-18.0
 21
-120.0
 31
0.0
  0
LINE
  5
186
330
17D
100
AcDbEntity
  8
Čáry náčrtu
 48
0.0
370
    50
100
AcDbLine
 10
-1.0
 20
-140.0
 30
0.0
 11
-58.0
 21
-140.0
 31
0.0
  0
LINE
  5
187
330
17D
100
AcDbEntity
  8
Čáry náčrtu
 48
0.0
370
    50
100
AcDbLine
 10
-1.0
 20
-135.0
 30
0.0
 11
-58.0
 21
-135.0
 31
0.0
  0
LINE
  5
188
330
17D
100
AcDbEntity
  8
Čáry náčrtu
 48
0.0
370
    50
100
AcDbLine
 10
-1.0
 20
-130.0
 30
0.0
 11
-49.0
 21
-130.0
 31
0.0
  0
LINE
  5
189
330
17D
100
AcDbEntity
  8
Čáry náčrtu
 48
0.0
370
    50
100
AcDbLine
 10
-1.0
 20
-125.0
 30
0.0
 11
-49.0
 21
-125.0
 31
0.0
  0
LINE
  5
18A
330
17D
100
AcDbEntity
  8
Čáry náčrtu
 48
0.0
370
    50
100
AcDbLine
 10
-1.0
 20
-120.0
 30
0.0
 11
-58.0
 21
-120.0
 31
0.0
  0
LINE
  5
18B
330
17D
100
AcDbEntity
  8
Čáry náčrtu
 48
0.0
370
    50
100
AcDbLine
 10
-1.0
 20
-115.0
 30
0.0
 11
-49.0
 21
-115.0
 31
0.0
  0
LINE
  5
18C
330
17D
100
AcDbEntity
  8
Čáry náčrtu
 48
0.0
370
    50
100
AcDbLine
 10
-1.0
 20
-110.0
 30
0.0
 11
-49.0
 21
-110.0
 31
0.0
  0
LINE
  5
18D
330
17D
100
AcDbEntity
  8
Čáry náčrtu
 48
0.0
370
    50
100
AcDbLine
 10
-1.0
 20
-105.0
 30
0.0
 11
-49.0
 21
-105.0
 31
0.0
  0
LINE
  5
18E
330
17D
100
AcDbEntity
  8
Čáry náčrtu
 48
0.0
370
    50
100
AcDbLine
 10
-1.0
 20
-100.0
 30
0.0
 11
-49.0
 21
-100.0
 31
0.0
  0
LINE
  5
18F
330
17D
100
AcDbEntity
  8
Čáry náčrtu
 48
0.0
370
    50
100
AcDbLine
 10
-1.0
 20
-95.0
 30
0.0
 11
-58.0
 21
-95.0
 31
0.0
  0
LINE
  5
190
330
17D
100
AcDbEntity
  8
Čáry náčrtu
 48
0.0
370
    50
100
AcDbLine
 10
-1.0
 20
-85.0
 30
0.0
 11
-58.0
 21
-85.0
 31
0.0
  0
LINE
  5
191
330
17D
100
AcDbEntity
  8
Čáry náčrtu
 48
0.0
370
    50
100
AcDbLine
 10
-1.0
 20
-80.0
 30
0.0
 11
-58.0
 21
-80.0
 31
0.0
  0
LINE
  5
192
330
17D
100
AcDbEntity
  8
Čáry náčrtu
 48
0.0
370
    50
100
AcDbLine
 10
-1.0
 20
-75.0
 30
0.0
 11
-58.0
 21
-75.0
 31
0.0
  0
LINE
  5
193
330
17D
100
AcDbEntity
  8
Čáry náčrtu
 48
0.0
370
    50
100
AcDbLine
 10
-1.0
 20
-70.0
 30
0.0
 11
-58.0
 21
-70.0
 31
0.0
  0
LINE
  5
194
330
17D
100
AcDbEntity
  8
Čáry náčrtu
 48
0.0
370
    50
100
AcDbLine
 10
-1.0
 20
-65.0
 30
0.0
 11
-58.0
 21
-65.0
 31
0.0
  0
LINE
  5
195
330
17D
100
AcDbEntity
  8
Čáry náčrtu
 48
0.0
370
    50
100
AcDbLine
 10
-1.0
 20
-60.0
 30
0.0
 11
-58.0
 21
-60.0
 31
0.0
  0
LINE
  5
196
330
17D
100
AcDbEntity
  8
Čáry náčrtu
 48
0.0
370
    50
100
AcDbLine
 10
-1.0
 20
-55.0
 30
0.0
 11
-58.0
 21
-55.0
 31
0.0
  0
LINE
  5
197
330
17D
100
AcDbEntity
  8
Čáry náčrtu
 48
0.0
370
    50
100
AcDbLine
 10
-1.0
 20
-50.0
 30
0.0
 11
-58.0
 21
-50.0
 31
0.0
  0
LINE
  5
198
330
17D
100
AcDbEntity
  8
Čáry náčrtu
 48
0.0
370
    50
100
AcDbLine
 10
-1.0
 20
-45.0
 30
0.0
 11
-58.0
 21
-45.0
 31
0.0
  0
LINE
  5
199
330
17D
100
AcDbEntity
  8
Čáry náčrtu
 48
0.0
370
    50
100
AcDbLine
 10
-1.0
 20
-40.0
 30
0.0
 11
-49.0
 21
-40.0
 31
0.0
  0
LINE
  5
19A
330
17D
100
AcDbEntity
  8
Čáry náčrtu
 48
0.0
370
    50
100
AcDbLine
 10
-1.0
 20
-35.0
 30
0.0
 11
-49.0
 21
-35.0
 31
0.0
  0
LINE
  5
19B
330
17D
100
AcDbEntity
  8
Čáry náčrtu
 48
0.0
370
    50
100
AcDbLine
 10
-1.0
 20
-30.0
 30
0.0
 11
-58.0
 21
-30.0
 31
0.0
  0
LINE
  5
19C
330
17D
100
AcDbEntity
  8
Čáry náčrtu
 48
0.0
370
    50
100
AcDbLine
 10
-1.0
 20
-25.0
 30
0.0
 11
-58.0
 21
-25.0
 31
0.0
  0
LINE
  5
19D
330
17D
100
AcDbEntity
  8
Čáry náčrtu
 48
0.0
370
    50
100
AcDbLine
 10
-49.0
 20
-30.0
 30
0.0
 11
-49.0
 21
-45.0
 31
0.0
  0
LINE
  5
19E
330
17D
100
AcDbEntity
  8
Čáry náčrtu
 48
0.0
370
    50
100
AcDbLine
 10
-49.0
 20
-95.0
 30
0.0
 11
-49.0
 21
-135.0
 31
0.0
  0
LINE
  5
19F
330
17D
100
AcDbEntity
  8
Čáry náčrtu
 48
0.0
370
    50
100
AcDbLine
 10
-27.0
 20
-120.0
 30
0.0
 11
-27.0
 21
-125.0
 31
0.0
  0
MTEXT
  5
1A0
330
17D
100
AcDbEntity
  8
Text
 62
    36
370
     5
100
AcDbMText
 10
-56.00000000000001
 20
-23.5
 30
0.0
 40
2.000000029802322
 41
0.0
 71
     7
 72
     1
  1
NORMALNY MODUL
  7
INVENTOR
 73
     2
 44
3.0
1001
ACAD
1000
MTEXTBEGIN
1070
    73
1070
     2
1070
    44
1040
3.0
1070
    74
1070
     0
1000
MTEXTEND
  0
MTEXT
  5
1A1
330
17D
100
AcDbEntity
  8
Text
 62
    36
370
     5
100
AcDbMText
 10
-23.0
 20
-23.5
 30
0.0
 40
2.000000029802322
 41
0.0
 71
     7
 72
     1
  1
Mn
  7
INVENTOR
 73
     2
 44
3.0
1001
ACAD
1000
MTEXTBEGIN
1070
    73
1070
     2
1070
    44
1040
3.0
1070
    74
1070
     0
1000
MTEXTEND
  0
MTEXT
  5
1A2
330
17D
100
AcDbEntity
  8
Text
 62
    36
370
     5
100
AcDbMText
 10
-56.00000000000001
 20
-28.5
 30
0.0
 40
2.000000029802322
 41
0.0
 71
     7
 72
     1
  1
POCET ZUBU
  7
INVENTOR
 73
     2
 44
3.0
1001
ACAD
1000
MTEXTBEGIN
1070
    73
1070
     2
1070
    44
1040
3.0
1070
    74
1070
     0
1000
MTEXTEND
  0
MTEXT
  5
1A3
330
17D
100
AcDbEntity
  8
Text
 62
    36
370
     5
100
AcDbMText
 10
-21.83605759083122
 20
-28.5
 30
0.0
 40
2.000000029802322
 41
0.0
 71
     7
 72
     1
  1
z
  7
INVENTOR
 73
     2
 44
3.0
1001
ACAD
1000
MTEXTBEGIN
1070
    73
1070
     2
1070
    44
1040
3.0
1070
    74
1070
     0
1000
MTEXTEND
  0
MTEXT
  5
1A4
330
17D
100
AcDbEntity
  8
Text
 62
    36
370
     5
100
AcDbMText
 10
-54.0
 20
-43.5
 30
0.0
 40
2.000000029802322
 41
0.0
 71
     7
 72
     1
  1
ZAKLADNI
  7
INVENTOR
 11
0.0000000000000001
 21
1.0
 31
0.0
 73
     2
 44
3.0
1001
ACAD
1000
MTEXTBEGIN
1070
    73
1070
     2
1070
    44
1040
3.0
1070
    74
1070
     0
1000
MTEXTEND
  0
MTEXT
  5
1A5
330
17D
100
AcDbEntity
  8
Text
 62
    36
370
     5
100
AcDbMText
 10
-50.66666666666669
 20
-43.5
 30
0.0
 40
2.000000029802322
 41
0.0
 71
     7
 72
     1
  1
PROFIL
  7
INVENTOR
 11
0.0000000000000001
 21
1.0
 31
0.0
 73
     2
 44
3.0
1001
ACAD
1000
MTEXTBEGIN
1070
    73
1070
     2
1070
    44
1040
3.0
1070
    74
1070
     0
1000
MTEXTEND
  0
MTEXT
  5
1A6
330
17D
100
AcDbEntity
  8
Text
 62
    36
370
     5
100
AcDbMText
 10
-48.0
 20
-33.5
 30
0.0
 40
2.000000029802322
 41
0.0
 71
     7
 72
     1
  1
UHEL ZABERU
  7
INVENTOR
 73
     2
 44
3.0
1001
ACAD
1000
MTEXTBEGIN
1070
    73
1070
     2
1070
    44
1040
3.0
1070
    74
1070
     0
1000
MTEXTEND
  0
MTEXT
  5
1A7
330
17D
100
AcDbEntity
  8
Text
 62
    36
370
     5
100
AcDbMText
 10
-48.0
 20
-38.5
 30
0.0
 40
2.000000029802322
 41
0.0
 71
     7
 72
     1
  1
JEDN. VYSKA HLAVY
  7
INVENTOR
 73
     2
 44
3.0
1001
ACAD
1000
MTEXTBEGIN
1070
    73
1070
     2
1070
    44
1040
3.0
1070
    74
1070
     0
1000
MTEXTEND
  0
MTEXT
  5
1A8
330
17D
100
AcDbEntity
  8
Text
 62
    36
370
     5
100
AcDbMText
 10
-48.0
 20
-43.5
 30
0.0
 40
2.000000029802322
 41
0.0
 71
     7
 72
     1
  1
JEDN. HLAV. VULE
  7
INVENTOR
 73
     2
 44
3.0
1001
ACAD
1000
MTEXTBEGIN
1070
    73
1070
     2
1070
    44
1040
3.0
1070
    74
1070
     0
1000
MTEXTEND
  0
MTEXT
  5
1A9
330
17D
100
AcDbEntity
  8
Text
 62
    36
370
     5
100
AcDbMText
 10
-23.0
 20
-43.5
 30
0.0
 40
2.000000029802322
 41
0.0
 71
     7
 72
     1
  1
Ca
  7
INVENTOR
 73
     2
 44
3.0
1001
ACAD
1000
MTEXTBEGIN
1070
    73
1070
     2
1070
    44
1040
3.0
1070
    74
1070
     0
1000
MTEXTEND
  0
MTEXT
  5
1AA
330
17D
100
AcDbEntity
  8
Text
 62
    36
370
     5
100
AcDbMText
 10
-56.00000000000001
 20
-53.50000000000001
 30
0.0
 40
2.000000029802322
 41
0.0
 71
     7
 72
     1
  1
SMYSL SROUBOVICE ZUBU
  7
INVENTOR
 73
     2
 44
3.0
1001
ACAD
1000
MTEXTBEGIN
1070
    73
1070
     2
1070
    44
1040
3.0
1070
    74
1070
     0
1000
MTEXTEND
  0
MTEXT
  5
1AB
330
17D
100
AcDbEntity
  8
Text
 62
    36
370
     5
100
AcDbMText
 10
-56.00000000000001
 20
-58.50000000000001
 30
0.0
 40
2.000000029802322
 41
0.0
 71
     7
 72
     1
  1
POSUNUTI ZAKL. PROFILU
  7
INVENTOR
 73
     2
 44
3.0
1001
ACAD
1000
MTEXTBEGIN
1070
    73
1070
     2
1070
    44
1040
3.0
1070
    74
1070
     0
1000
MTEXTEND
  0
MTEXT
  5
1AC
330
17D
100
AcDbEntity
  8
Text
 62
    36
370
     5
100
AcDbMText
 10
-23.0
 20
-58.50000000000001
 30
0.0
 40
2.000000029802322
 41
0.0
 71
     7
 72
     1
  1
Xm
  7
INVENTOR
 73
     2
 44
3.0
1001
ACAD
1000
MTEXTBEGIN
1070
    73
1070
     2
1070
    44
1040
3.0
1070
    74
1070
     0
1000
MTEXTEND
  0
MTEXT
  5
1AD
330
17D
100
AcDbEntity
  8
Text
 62
    36
370
     5
100
AcDbMText
 10
-56.00000000000001
 20
-63.50000000000001
 30
0.0
 40
2.000000029802322
 41
0.0
 71
     7
 72
     1
  1
CELNI MODUL
  7
INVENTOR
 73
     2
 44
3.0
1001
ACAD
1000
MTEXTBEGIN
1070
    73
1070
     2
1070
    44
1040
3.0
1070
    74
1070
     0
1000
MTEXTEND
  0
MTEXT
  5
1AE
330
17D
100
AcDbEntity
  8
Text
 62
    36
370
     5
100
AcDbMText
 10
-23.0
 20
-63.50000000000001
 30
0.0
 40
2.000000029802322
 41
0.0
 71
     7
 72
     1
  1
Mt
  7
INVENTOR
 73
     2
 44
3.0
1001
ACAD
1000
MTEXTBEGIN
1070
    73
1070
     2
1070
    44
1040
3.0
1070
    74
1070
     0
1000
MTEXTEND
  0
MTEXT
  5
1AF
330
17D
100
AcDbEntity
  8
Text
 62
    36
370
     5
100
AcDbMText
 10
-56.00000000000001
 20
-68.5
 30
0.0
 40
2.000000029802322
 41
0.0
 71
     7
 72
     1
  1
PRUMER ROZT. KRUZNICE
  7
INVENTOR
 73
     2
 44
3.0
1001
ACAD
1000
MTEXTBEGIN
1070
    73
1070
     2
1070
    44
1040
3.0
1070
    74
1070
     0
1000
MTEXTEND
  0
MTEXT
  5
1B0
330
17D
100
AcDbEntity
  8
Text
 62
    36
370
     5
100
AcDbMText
 10
-23.0
 20
-68.5
 30
0.0
 40
2.000000029802322
 41
0.0
 71
     7
 72
     1
  1
D
  7
INVENTOR
 73
     2
 44
3.0
1001
ACAD
1000
MTEXTBEGIN
1070
    73
1070
     2
1070
    44
1040
3.0
1070
    74
1070
     0
1000
MTEXTEND
  0
MTEXT
  5
1B1
330
17D
100
AcDbEntity
  8
Text
 62
    36
370
     5
100
AcDbMText
 10
-56.00000000000001
 20
-73.5
 30
0.0
 40
2.000000029802322
 41
0.0
 71
     7
 72
     1
  1
TEORET. VYSKA ZUBU
  7
INVENTOR
 73
     2
 44
3.0
1001
ACAD
1000
MTEXTBEGIN
1070
    73
1070
     2
1070
    44
1040
3.0
1070
    74
1070
     0
1000
MTEXTEND
  0
MTEXT
  5
1B2
330
17D
100
AcDbEntity
  8
Text
 62
    36
370
     5
100
AcDbMText
 10
-23.0
 20
-73.5
 30
0.0
 40
2.000000029802322
 41
0.0
 71
     7
 72
     1
  1
h
  7
INVENTOR
 73
     2
 44
3.0
1001
ACAD
1000
MTEXTBEGIN
1070
    73
1070
     2
1070
    44
1040
3.0
1070
    74
1070
     0
1000
MTEXTEND
  0
MTEXT
  5
1B3
330
17D
100
AcDbEntity
  8
Text
 62
    36
370
     5
100
AcDbMText
 10
-56.00000000000001
 20
-78.5
 30
0.0
 40
2.000000029802322
 41
0.0
 71
     7
 72
     1
  1
PRUMER ZAKL. KRUZ.
  7
INVENTOR
 73
     2
 44
3.0
1001
ACAD
1000
MTEXTBEGIN
1070
    73
1070
     2
1070
    44
1040
3.0
1070
    74
1070
     0
1000
MTEXTEND
  0
MTEXT
  5
1B4
330
17D
100
AcDbEntity
  8
Text
 62
    36
370
     5
100
AcDbMText
 10
-23.0
 20
-78.5
 30
0.0
 40
2.000000029802322
 41
0.0
 71
     7
 72
     1
  1
Db
  7
INVENTOR
 73
     2
 44
3.0
1001
ACAD
1000
MTEXTBEGIN
1070
    73
1070
     2
1070
    44
1040
3.0
1070
    74
1070
     0
1000
MTEXTEND
  0
MTEXT
  5
1B5
330
17D
100
AcDbEntity
  8
Text
 62
    36
370
     5
100
AcDbMText
 10
-56.00000000000001
 20
-83.49999999999999
 30
0.0
 40
2.000000029802322
 41
0.0
 71
     7
 72
     1
  1
STUPEN PRESNOSTI
  7
INVENTOR
 73
     2
 44
3.0
1001
ACAD
1000
MTEXTBEGIN
1070
    73
1070
     2
1070
    44
1040
3.0
1070
    74
1070
     0
1000
MTEXTEND
  0
MTEXT
  5
1B6
330
17D
100
AcDbEntity
  8
Text
 62
    36
370
     5
100
AcDbMText
 10
-54.0
 20
-118.5
 30
0.0
 40
2.000000029802322
 41
0.0
 71
     7
 72
     1
  1
KONTROLOVANA
  7
INVENTOR
 11
0.0000000000000001
 21
1.0
 31
0.0
 73
     2
 44
3.0
1001
ACAD
1000
MTEXTBEGIN
1070
    73
1070
     2
1070
    44
1040
3.0
1070
    74
1070
     0
1000
MTEXTEND
  0
MTEXT
  5
1B7
330
17D
100
AcDbEntity
  8
Text
 62
    36
370
     5
100
AcDbMText
 10
-50.66666666666669
 20
-118.5
 30
0.0
 40
2.000000029802322
 41
0.0
 71
     7
 72
     1
  1
UCHYLKA
  7
INVENTOR
 11
0.0000000000000001
 21
1.0
 31
0.0
 73
     2
 44
3.0
1001
ACAD
1000
MTEXTBEGIN
1070
    73
1070
     2
1070
    44
1040
3.0
1070
    74
1070
     0
1000
MTEXTEND
  0
MTEXT
  5
1B8
330
17D
100
AcDbEntity
  8
Text
 62
    36
370
     5
100
AcDbMText
 10
-47.0
 20
-98.50000000000001
 30
0.0
 40
2.000000029802322
 41
0.0
 71
     7
 72
     1
  1
ZAKLAD. ROZTECE
  7
INVENTOR
 73
     2
 44
3.0
1001
ACAD
1000
MTEXTBEGIN
1070
    73
1070
     2
1070
    44
1040
3.0
1070
    74
1070
     0
1000
MTEXTEND
  0
MTEXT
  5
1B9
330
17D
100
AcDbEntity
  8
Text
 62
    36
370
     5
100
AcDbMText
 10
-24.03617471472183
 20
-98.50000000000001
 30
0.0
 40
2.000000029802322
 41
0.0
 71
     7
 72
     1
  1
fpb\fAIGDT|b0|i0;\W1.00;\H2.0000;\l`
  7
INVENTOR
 73
     2
 44
3.0
1001
ACAD
1000
MTEXTBEGIN
1070
    73
1070
     2
1070
    44
1040
3.0
1070
    74
1070
     0
1000
MTEXTEND
  0
MTEXT
  5
1BA
330
17D
100
AcDbEntity
  8
Text
 62
    36
370
     5
100
AcDbMText
 10
-47.0
 20
-103.5
 30
0.0
 40
2.000000029802322
 41
0.0
 71
     7
 72
     1
  1
SKLONU ZUBU
  7
INVENTOR
 73
     2
 44
3.0
1001
ACAD
1000
MTEXTBEGIN
1070
    73
1070
     2
1070
    44
1040
3.0
1070
    74
1070
     0
1000
MTEXTEND
  0
MTEXT
  5
1BB
330
17D
100
AcDbEntity
  8
Text
 62
    36
370
     5
100
AcDbMText
 10
-24.03617471472183
 20
-103.5
 30
0.0
 40
2.000000029802322
 41
0.0
 71
     7
 72
     1
  1
FB
  7
INVENTOR
 73
     2
 44
3.0
1001
ACAD
1000
MTEXTBEGIN
1070
    73
1070
     2
1070
    44
1040
3.0
1070
    74
1070
     0
1000
MTEXTEND
  0
MTEXT
  5
1BC
330
17D
100
AcDbEntity
  8
Text
 62
    36
370
     5
100
AcDbMText
 10
-47.0
 20
-108.5
 30
0.0
 40
2.000000029802322
 41
0.0
 71
     7
 72
     1
  1
ODVALU ZUBU
  7
INVENTOR
 73
     2
 44
3.0
1001
ACAD
1000
MTEXTBEGIN
1070
    73
1070
     2
1070
    44
1040
3.0
1070
    74
1070
     0
1000
MTEXTEND
  0
MTEXT
  5
1BD
330
17D
100
AcDbEntity
  8
Text
 62
    36
370
     5
100
AcDbMText
 10
-24.03617471472183
 20
-108.5
 30
0.0
 40
2.000000029802322
 41
0.0
 71
     7
 72
     1
  1
fi''
  7
INVENTOR
 73
     2
 44
3.0
1001
ACAD
1000
MTEXTBEGIN
1070
    73
1070
     2
1070
    44
1040
3.0
1070
    74
1070
     0
1000
MTEXTEND
  0
MTEXT
  5
1BE
330
17D
100
AcDbEntity
  8
Text
 62
    36
370
     5
100
AcDbMText
 10
-47.0
 20
-113.5
 30
0.0
 40
2.000000029802322
 41
0.0
 71
     7
 72
     1
  1
ODVALU KOLA
  7
INVENTOR
 73
     2
 44
3.0
1001
ACAD
1000
MTEXTBEGIN
1070
    73
1070
     2
1070
    44
1040
3.0
1070
    74
1070
     0
1000
MTEXTEND
  0
MTEXT
  5
1BF
330
17D
100
AcDbEntity
  8
Text
 62
    36
370
     5
100
AcDbMText
 10
-24.03617471472183
 20
-113.5
 30
0.0
 40
2.000000029802322
 41
0.0
 71
     7
 72
     1
  1
Fi''
  7
INVENTOR
 73
     2
 44
3.0
1001
ACAD
1000
MTEXTBEGIN
1070
    73
1070
     2
1070
    44
1040
3.0
1070
    74
1070
     0
1000
MTEXTEND
  0
MTEXT
  5
1C0
330
17D
100
AcDbEntity
  8
Text
 62
    36
370
     5
100
AcDbMText
 10
-47.0
 20
-118.5
 30
0.0
 40
2.000000029802322
 41
0.0
 71
     7
 72
     1
  1
PROFILU ZUBU
  7
INVENTOR
 73
     2
 44
3.0
1001
ACAD
1000
MTEXTBEGIN
1070
    73
1070
     2
1070
    44
1040
3.0
1070
    74
1070
     0
1000
MTEXTEND
  0
MTEXT
  5
1C1
330
17D
100
AcDbEntity
  8
Text
 62
    36
370
     5
100
AcDbMText
 10
-24.03617471472183
 20
-118.5
 30
0.0
 40
2.000000029802322
 41
0.0
 71
     7
 72
     1
  1
ff
  7
INVENTOR
 73
     2
 44
3.0
1001
ACAD
1000
MTEXTBEGIN
1070
    73
1070
     2
1070
    44
1040
3.0
1070
    74
1070
     0
1000
MTEXTEND
  0
MTEXT
  5
1C2
330
17D
100
AcDbEntity
  8
Text
 62
    36
370
     5
100
AcDbMText
 10
-47.0
 20
-123.5
 30
0.0
 40
2.000000029802322
 41
0.0
 71
     7
 72
     1
  1
C.V.
  7
INVENTOR
 73
     2
 44
3.0
1001
ACAD
1000
MTEXTBEGIN
1070
    73
1070
     2
1070
    44
1040
3.0
1070
    74
1070
     0
1000
MTEXTEND
  0
MTEXT
  5
1C3
330
17D
100
AcDbEntity
  8
Text
 62
    36
370
     5
100
AcDbMText
 10
-25.0
 20
-123.5
 30
0.0
 40
2.000000029802322
 41
0.0
 71
     7
 72
     1
  1
POZ.
  7
INVENTOR
 73
     2
 44
3.0
1001
ACAD
1000
MTEXTBEGIN
1070
    73
1070
     2
1070
    44
1040
3.0
1070
    74
1070
     0
1000
MTEXTEND
  0
MTEXT
  5
1C4
330
17D
100
AcDbEntity
  8
Text
 62
    36
370
     5
100
AcDbMText
 10
-47.0
 20
-128.5
 30
0.0
 40
2.000000029802322
 41
0.0
 71
     7
 72
     1
  1
POCET ZUBU
  7
INVENTOR
 73
     2
 44
3.0
1001
ACAD
1000
MTEXTBEGIN
1070
    73
1070
     2
1070
    44
1040
3.0
1070
    74
1070
     0
1000
MTEXTEND
  0
MTEXT
  5
1C5
330
17D
100
AcDbEntity
  8
Text
 62
    36
370
     5
100
AcDbMText
 10
-47.0
 20
-133.5
 30
0.0
 40
2.000000029802322
 41
0.0
 71
     7
 72
     1
  1
VZDALENOST OS
  7
INVENTOR
 73
     2
 44
3.0
1001
ACAD
1000
MTEXTBEGIN
1070
    73
1070
     2
1070
    44
1040
3.0
1070
    74
1070
     0
1000
MTEXTEND
  0
MTEXT
  5
1C6
330
17D
100
AcDbEntity
  8
Text
 62
    36
370
     5
100
AcDbMText
 10
-54.0
 20
-133.5
 30
0.0
 40
2.000000029802322
 41
0.0
 71
     7
 72
     1
  1
SPOLUZAB.
  7
INVENTOR
 11
0.0000000000000001
 21
1.0
 31
0.0
 73
     2
 44
3.0
1001
ACAD
1000
MTEXTBEGIN
1070
    73
1070
     2
1070
    44
1040
3.0
1070
    74
1070
     0
1000
MTEXTEND
  0
MTEXT
  5
1C7
330
17D
100
AcDbEntity
  8
Text
 62
    36
370
     5
100
AcDbMText
 10
-50.66666666666669
 20
-133.5
 30
0.0
 40
2.000000029802322
 41
0.0
 71
     7
 72
     1
  1
KOLO
  7
INVENTOR
 11
0.0000000000000001
 21
1.0
 31
0.0
 73
     2
 44
3.0
1001
ACAD
1000
MTEXTBEGIN
1070
    73
1070
     2
1070
    44
1040
3.0
1070
    74
1070
     0
1000
MTEXTEND
  0
MTEXT
  5
1C8
330
17D
100
AcDbEntity
  8
Text
 62
    36
370
     5
100
AcDbMText
 10
-24.03617471472183
 20
-133.5
 30
0.0
 40
2.000000029802322
 41
0.0
 71
     7
 72
     1
  1
a
  7
INVENTOR
 73
     2
 44
3.0
1001
ACAD
1000
MTEXTBEGIN
1070
    73
1070
     2
1070
    44
1040
3.0
1070
    74
1070
     0
1000
MTEXTEND
  0
MTEXT
  5
1C9
330
17D
100
AcDbEntity
  8
Text
 62
    36
370
     5
100
AcDbMText
 10
-24.03617471472183
 20
-128.5
 30
0.0
 40
2.000000029802322
 41
0.0
 71
     7
 72
     1
  1
Z2
  7
INVENTOR
 73
     2
 44
3.0
1001
ACAD
1000
MTEXTBEGIN
1070
    73
1070
     2
1070
    44
1040
3.0
1070
    74
1070
     0
1000
MTEXTEND
  0
MTEXT
  5
1CA
330
17D
100
AcDbEntity
  8
Text
 62
    36
370
     5
100
AcDbMText
 10
-56.00000000000001
 20
-91.5
 30
0.0
 40
2.000000029802322
 41
0.0
 71
     7
 72
     1
  1
MIRA PRES ZUBY
  7
INVENTOR
 73
     2
 44
3.0
1001
ACAD
1000
MTEXTBEGIN
1070
    73
1070
     2
1070
    44
1040
3.0
1070
    74
1070
     0
1000
MTEXTEND
  0
MTEXT
  5
1CB
330
17D
100
AcDbEntity
  8
Text
 62
    36
370
     5
100
AcDbMText
 10
-24.78213675364401
 20
-91.5
 30
0.0
 40
2.000000029802322
 41
0.0
 71
     7
 72
     1
  1
W/
  7
INVENTOR
 73
     2
 44
3.0
1001
ACAD
1000
MTEXTBEGIN
1070
    73
1070
     2
1070
    44
1040
3.0
1070
    74
1070
     0
1000
MTEXTEND
  0
MTEXT
  5
1CC
330
17D
100
AcDbEntity
  8
Text
 62
    36
370
     5
100
AcDbMText
 10
-56.00000000000001
 20
-48.50000000000001
 30
0.0
 40
2.000000029802322
 41
0.0
 71
     7
 72
     1
  1
UHEL SKLONU ZUBU
  7
INVENTOR
 73
     2
 44
3.0
1001
ACAD
1000
MTEXTBEGIN
1070
    73
1070
     2
1070
    44
1040
3.0
1070
    74
1070
     0
1000
MTEXTEND
  0
MTEXT
  5
1CD
330
17D
100
AcDbEntity
  8
Text
 62
    36
370
     5
100
AcDbMText
 10
-21.85402760799798
 20
-33.5
 30
0.0
 40
2.000000029802322
 41
0.0
 71
     7
 72
     1
  1
\fGreekS|b0|i0;\W0.70;\H2.4892;\la
  7
G
 73
     2
 44
3.0
1001
ACAD
1000
MTEXTBEGIN
1070
    73
1070
     2
1070
    44
1040
3.0
1070
    74
1070
     0
1000
MTEXTEND
  0
MTEXT
  5
1CF
330
17D
100
AcDbEntity
  8
Text
 62
    36
370
     5
100
AcDbMText
 10
-21.85402760799798
 20
-49.31332122936699
 30
0.0
 40
2.000000029802322
 41
0.0
 71
     7
 72
     1
  1
\fgreeks|b0|i0;\W0.70;\H2.4892;\lb
  7
G
 73
     2
 44
3.0
1001
ACAD
1000
MTEXTBEGIN
1070
    73
1070
     2
1070
    44
1040
3.0
1070
    74
1070
     0
1000
MTEXTEND
  0
MTEXT
  5
1D0
330
17D
100
AcDbEntity
  8
Text
 62
    36
370
     5
100
AcDbMText
 10
-21.85402760799798
 20
-38.5
 30
0.0
 40
2.000000029802322
 41
0.0
 71
     7
 72
     1
  1
\fgreeks|b0|i0;\W0.70;\H2.4892;\lw
  7
G
 73
     2
 44
3.0
1001
ACAD
1000
MTEXTBEGIN
1070
    73
1070
     2
1070
    44
1040
3.0
1070
    74
1070
     0
1000
MTEXTEND
  0
MTEXT
  5
1D1
330
17D
100
AcDbEntity
  8
Text
 62
    36
370
     5
100
AcDbMText
 10
-26.41217883526963
 20
-83.49999999999999
 30
0.0
 40
2.000000029802322
 41
0.0
 71
     7
 72
     1
  1
STsev
  7
INVENTOR
 73
     2
 44
3.0
1001
ACAD
1000
MTEXTBEGIN
1070
    73
1070
     2
1070
    44
1040
3.0
1070
    74
1070
     0
1000
MTEXTEND
  0
ATTDEF
  5
1D2
330
17D
100
AcDbEntity
  8
0
100
AcDbText
 10
-12.29670191708035
 20
-23.5186988371875
 30
0.0
 40
2.000000029802322
  1
 
 11
-12.29670191708035
 21
-22.51869882228634
 31
0.0
100
AcDbAttributeDefinition
  3
NORMALNY MODUL
  2
NORMALNY_MODUL
 70
     0
 74
     2
  0
ATTDEF
  5
1D3
330
17D
100
AcDbEntity
  8
0
100
AcDbText
 10
-12.34583637858426
 20
-28.73295462427665
 30
0.0
 40
2.000000029802322
  1
 
 11
-12.34583637858426
 21
-27.73295460937549
 31
0.0
100
AcDbAttributeDefinition
  3
POCET ZUBU
  2
POCET_ZUBU
 70
     0
 74
     2
  0
ATTDEF
  5
1D4
330
17D
100
AcDbEntity
  8
0
100
AcDbText
 10
-12.29107617296502
 20
-33.43455280680325
 30
0.0
 40
2.000000029802322
  1
 
 11
-12.29107617296502
 21
-32.43455279190209
 31
0.0
100
AcDbAttributeDefinition
  3
UHEL ZABERU
  2
UHEL_ZABERU
 70
     0
 74
     2
  0
ATTDEF
  5
1D5
330
17D
100
AcDbEntity
  8
0
100
AcDbText
 10
-12.3680116084404
 20
-38.29982407377407
 30
0.0
 40
2.000000029802322
  1
 
 11
-12.3680116084404
 21
-37.29982405887291
 31
0.0
100
AcDbAttributeDefinition
  3
JEDN. VYSKA HLAVY
  2
JEDN._VYSKA_HLAVY
 70
     0
 74
     2
  0
ATTDEF
  5
1D6
330
17D
100
AcDbEntity
  8
0
100
AcDbText
 10
-12.20661689646668
 20
-43.34368529059166
 30
0.0
 40
2.000000029802322
  1
 
 11
-12.20661689646668
 21
-42.3436852756905
 31
0.0
100
AcDbAttributeDefinition
  3
JEDN. HLAVOVA VULE
  2
JEDN._HLAVOVA_VULE
 70
     0
 74
     2
  0
ATTDEF
  5
1D7
330
17D
100
AcDbEntity
  8
0
100
AcDbText
 10
-11.88042216962545
 20
-48.32049382137492
 30
0.0
 40
2.000000029802322
  1
 
 11
-11.88042216962545
 21
-47.32049380647376
 31
0.0
100
AcDbAttributeDefinition
  3
UHEL SKLONU ZUBU
  2
UHEL_SKLONU_ZUBU
 70
     0
 74
     2
  0
ATTDEF
  5
1D8
330
17D
100
AcDbEntity
  8
0
100
AcDbText
 10
-11.97094879495935
 20
-53.54991019204328
 30
0.0
 40
2.000000029802322
  1
 
 11
-11.97094879495935
 21
-52.54991017714212
 31
0.0
100
AcDbAttributeDefinition
  3
SMYSL SROUBOVICE ZUBU
  2
SMYSL_SROUBOVICE_ZUBU
 70
     0
 74
     2
  0
ATTDEF
  5
1D9
330
17D
100
AcDbEntity
  8
0
100
AcDbText
 10
-11.86055822017366
 20
-58.42777747798805
 30
0.0
 40
2.000000029802322
  1
 
 11
-11.86055822017366
 21
-57.42777746308689
 31
0.0
100
AcDbAttributeDefinition
  3
POSUNUTI ZAKL. PROFILU
  2
POSUNUTI_ZAKL._PROFILU
 70
     0
 74
     2
  0
ATTDEF
  5
1DA
330
17D
100
AcDbEntity
  8
0
100
AcDbText
 10
-11.81543646438397
 20
-63.76065422357751
 30
0.0
 40
2.000000029802322
  1
 
 11
-11.81543646438397
 21
-62.76065420867634
 31
0.0
100
AcDbAttributeDefinition
  3
CELNI MODUL
  2
CELNI_MODUL
 70
     0
 74
     2
  0
ATTDEF
  5
1DB
330
17D
100
AcDbEntity
  8
0
100
AcDbText
 10
-11.74068043479306
 20
-68.41953459899662
 30
0.0
 40
2.000000029802322
  1
 
 11
-11.74068043479306
 21
-67.41953458409546
 31
0.0
100
AcDbAttributeDefinition
  3
PRUMER ROZT. KRUZNICE
  2
PRUMER_ROZT._KRUZNICE
 70
     0
 74
     2
  0
ATTDEF
  5
1DC
330
17D
100
AcDbEntity
  8
0
100
AcDbText
 10
-11.41932992870707
 20
-73.61481333001485
 30
0.0
 40
2.000000029802322
  1
 
 11
-11.41932992870707
 21
-72.61481331511369
 31
0.0
100
AcDbAttributeDefinition
  3
TEORET.VYSKA ZUBU
  2
TEORET.VYSKA_ZUBU
 70
     0
 74
     2
  0
ATTDEF
  5
1DD
330
17D
100
AcDbEntity
  8
0
100
AcDbText
 10
-11.36297474759781
 20
-77.96444393771711
 30
0.0
 40
2.000000029802322
  1
 
 11
-11.36297474759781
 21
-76.96444392281595
 31
0.0
100
AcDbAttributeDefinition
  3
PRUMER ZAKL. KRUZNICE
  2
PRUMER_ZAKL._KRUZNICE
 70
     0
 74
     2
  0
ATTDEF
  5
1DE
330
17D
100
AcDbEntity
  8
0
100
AcDbText
 10
-11.40018523478001
 20
-83.60507738725496
 30
0.0
 40
2.000000029802322
  1
 
 11
-11.40018523478001
 21
-82.6050773723538
 31
0.0
100
AcDbAttributeDefinition
  3
STUPEN PRESNOSTI
  2
STUPEN_PRESNOSTI
 70
     0
 74
     2
  0
ATTDEF
  5
1DF
330
17D
100
AcDbEntity
  8
0
100
AcDbText
 10
-11.38891471853788
 20
-91.47562272917488
 30
0.0
 40
2.000000029802322
  1
 
 11
-11.38891471853788
 21
-90.47562271427372
 31
0.0
100
AcDbAttributeDefinition
  3
MIRA PRES ZUBY
  2
MIRA_PRES_ZUBY
 70
     0
 74
     2
  0
ATTDEF
  5
1E0
330
17D
100
AcDbEntity
  8
0
100
AcDbText
 10
-11.20112194820623
 20
-98.53774455714484
 30
0.0
 40
2.000000029802322
  1
 
 11
-11.20112194820623
 21
-97.53774454224368
 31
0.0
100
AcDbAttributeDefinition
  3
KONTROLOVANA UCHYLKA ZAKLAD ROZTECE
  2
KONTROLOVANA_UCHYLKA_ZAKLAD_ROZTECE
 70
     0
 74
     2
  0
ATTDEF
  5
1E1
330
17D
100
AcDbEntity
  8
0
100
AcDbText
 10
-11.06749981374833
 20
-103.3142876106337
 30
0.0
 40
2.000000029802322
  1
 
 11
-11.06749981374833
 21
-102.3142875957326
 31
0.0
100
AcDbAttributeDefinition
  3
KONTROLOVANA UCHYLKA SKLONU ZUBU
  2
KONTROLOVANA_UCHYLKA_SKLONU_ZUBU
 70
     0
 74
     2
  0
ATTDEF
  5
1E2
330
17D
100
AcDbEntity
  8
0
100
AcDbText
 10
-11.10417883198269
 20
-108.6417213250286
 30
0.0
 40
2.000000029802322
  1
 
 11
-11.10417883198269
 21
-106.6417212952262
 31
0.0
100
AcDbAttributeDefinition
  3
KONTROLOVANA UCHYLKA ODVALU ZUBU
  2
KONTROLOVANA_UCHYLKA_ODVALU_ZUBU
 70
     0
 74
     3
  0
ATTDEF
  5
1E3
330
17D
100
AcDbEntity
  8
0
100
AcDbText
 10
-11.01601767958952
 20
-113.7680336362296
 30
0.0
 40
2.000000029802322
  1
 
 11
-11.01601767958952
 21
-112.7680336213284
 31
0.0
100
AcDbAttributeDefinition
  3
KONTROLOVANA UCHYLKA ODVALU KOLA
  2
KONTROLOVANA_UCHYLKA_ODVALU_KOLA
 70
     0
 74
     2
  0
ATTDEF
  5
1E4
330
17D
100
AcDbEntity
  8
0
100
AcDbText
 10
-10.95033648422661
 20
-118.6758879100993
 30
0.0
 40
2.000000029802322
  1
 
 11
-10.95033648422661
 21
-117.6758878951982
 31
0.0
100
AcDbAttributeDefinition
  3
KONTROLOVANA UCHYLKA PROFILU ZUBU
  2
KONTROLOVANA_UCHYLKA_PROFILU_ZUBU
 70
     0
 74
     2
  0
ATTDEF
  5
1E5
330
17D
100
AcDbEntity
  8
0
100
AcDbText
 10
-42.63008594055152
 20
-123.6494565437878
 30
0.0
 40
2.006599903106689
  1
 
  7
Text Style66
 11
-42.63008594055152
 21
-122.6461565922345
 31
0.0
100
AcDbAttributeDefinition
  3
SPOLUZABIRAJICI KOLO-C.V.
  2
SPOLUZABIRAJICI_KOLO-C.V.
 70
     0
 74
     2
  0
ATTDEF
  5
1E6
330
17D
100
AcDbEntity
  8
0
100
AcDbText
 10
-10.84535070640258
 20
-123.5274567803845
 30
0.0
 40
2.000000029802322
  1
 
 11
-10.84535070640258
 21
-122.5274567654833
 31
0.0
100
AcDbAttributeDefinition
  3
SPOLUZABIRAJICI KOLO-POZ.
  2
SPOLUZABIRAJICI_KOLO-POZ.
 70
     0
 74
     2
  0
ATTDEF
  5
1E7
330
17D
100
AcDbEntity
  8
0
100
AcDbText
 10
-10.70378886664367
 20
-128.5148817688136
 30
0.0
 40
2.000000029802322
  1
 
 11
-10.70378886664367
 21
-127.5148817539124
 31
0.0
100
AcDbAttributeDefinition
  3
SPOLUZABIRAJICI KOLO-POCET ZUBU
  2
SPOLUZABIRAJICI_KOLO-POCET_ZUBU
 70
     0
 74
     2
  0
ATTDEF
  5
1E8
330
17D
100
AcDbEntity
  8
0
100
AcDbText
 10
-10.62301190899015
 20
-133.4738991616196
 30
0.0
 40
2.000000029802322
  1
 
 11
-10.62301190899015
 21
-132.4738991467184
 31
0.0
100
AcDbAttributeDefinition
  3
SPOLUZABIRAJICI KOLO-VZDALENOST OS
  2
SPOLUZABIRAJICI_KOLO-VZDALENOST_OS
 70
     0
 74
     2
  0
ATTDEF
  5
1E9
330
17D
100
AcDbEntity
  8
0
100
AcDbText
 10
-20.64554627206832
 20
-91.61265726952528
 30
0.0
 40
2.000000029802322
  1
 
 11
-20.64554627206832
 21
-90.61265725462412
 31
0.0
100
AcDbAttributeDefinition
  3
MIRA PRES ZUBY-POCET ZUBU
  2
MIRA_PRES_ZUBY-POCET_ZUBU
 70
     0
 74
     2
  0
ENDBLK
  5
17F
330
17D
100
AcDbEntity
  8
0
100
AcDbBlockEnd
  0
BLOCK
  5
1EB
330
1EA
100
AcDbEntity
  8
0
100
AcDbBlockBegin
  2
RAZITKO-RETEZOVE KOLO
 70
     2
 10
-29.5
 20
-15.0
 30
0.0
  3
RAZITKO-RETEZOVE KOLO
  1

  0
LINE
  5
1ED
330
1EA
100
AcDbEntity
  8
Čáry náčrtu
 48
0.0
370
    50
100
AcDbLine
 10
-1.0
 20
-25.0
 30
0.0
 11
-58.0
 21
-25.0
 31
0.0
  0
LINE
  5
1EE
330
1EA
100
AcDbEntity
  8
Čáry náčrtu
 48
0.0
370
    50
100
AcDbLine
 10
-58.0
 20
-20.0
 30
0.0
 11
-0.9999999999999964
 21
-20.0
 31
0.0
  0
LINE
  5
1EF
330
1EA
100
AcDbEntity
  8
Čáry náčrtu
 48
0.0
370
    50
100
AcDbLine
 10
-58.0
 20
-15.00000000000001
 30
0.0
 11
-0.9999999999999964
 21
-15.0
 31
0.0
  0
LINE
  5
1F0
330
1EA
100
AcDbEntity
  8
Čáry náčrtu
 48
0.0
370
    50
100
AcDbLine
 10
-58.0
 20
-10.0
 30
0.0
 11
-0.9999999999999964
 21
-9.999999999999996
 31
0.0
  0
LINE
  5
1F1
330
1EA
100
AcDbEntity
  8
Čáry náčrtu
 48
0.0
370
    50
100
AcDbLine
 10
-58.0
 20
-5.000000000000007
 30
0.0
 11
-0.9999999999999964
 21
-4.999999999999999
 31
0.0
  0
LINE
  5
1F2
330
1EA
100
AcDbEntity
  8
Čáry náčrtu
 48
0.0
370
    50
100
AcDbLine
 10
-1.0
 20
-4.999999999999999
 30
0.0
 11
-1.0
 21
-25.0
 31
0.0
  0
LINE
  5
1F3
330
1EA
100
AcDbEntity
  8
Čáry náčrtu
 48
0.0
370
    50
100
AcDbLine
 10
-18.0
 20
-5.0
 30
0.0
 11
-18.0
 21
-25.0
 31
0.0
  0
LINE
  5
1F4
330
1EA
100
AcDbEntity
  8
Čáry náčrtu
 48
0.0
370
    50
100
AcDbLine
 10
-58.0
 20
-25.0
 30
0.0
 11
-58.0
 21
-5.000000000000007
 31
0.0
  0
MTEXT
  5
1F5
330
1EA
100
AcDbEntity
  8
Text
 62
    36
370
     5
100
AcDbMText
 10
-56.79445928494512
 20
-18.47909670264679
 30
0.0
 40
2.000000029802322
 41
0.0
 71
     7
 72
     1
  1
PRUMER VALECKU
  7
INVENTOR
 73
     2
 44
3.0
1001
ACAD
1000
MTEXTBEGIN
1070
    73
1070
     2
1070
    44
1040
3.0
1070
    74
1070
     0
1000
MTEXTEND
  0
MTEXT
  5
1F6
330
1EA
100
AcDbEntity
  8
Text
 62
    36
370
     5
100
AcDbMText
 10
-56.62056186564861
 20
-23.27161505773227
 30
0.0
 40
2.000000029802322
 41
0.0
 71
     7
 72
     1
  1
PRUMER ROZT. KRUZNICE
  7
INVENTOR
 73
     2
 44
3.0
1001
ACAD
1000
MTEXTBEGIN
1070
    73
1070
     2
1070
    44
1040
3.0
1070
    74
1070
     0
1000
MTEXTEND
  0
MTEXT
  5
1F7
330
1EA
100
AcDbEntity
  8
Text
 62
    36
370
     5
100
AcDbMText
 10
-57.05414137298231
 20
-13.49288909200582
 30
0.0
 40
2.000000029802322
 41
0.0
 71
     7
 72
     1
  1
ROZTEC RETEZU
  7
INVENTOR
 73
     2
 44
3.0
1001
ACAD
1000
MTEXTBEGIN
1070
    73
1070
     2
1070
    44
1040
3.0
1070
    74
1070
     0
1000
MTEXTEND
  0
MTEXT
  5
1F8
330
1EA
100
AcDbEntity
  8
Text
 62
    36
370
     5
100
AcDbMText
 10
-56.72795468700211
 20
-8.362319658820823
 30
0.0
 40
2.000000029802322
 41
0.0
 71
     7
 72
     1
  1
POCET ZUBU
  7
INVENTOR
 73
     2
 44
3.0
1001
ACAD
1000
MTEXTBEGIN
1070
    73
1070
     2
1070
    44
1040
3.0
1070
    74
1070
     0
1000
MTEXTEND
  0
ATTDEF
  5
1F9
330
1EA
100
AcDbEntity
  8
0
100
AcDbText
 10
-15.49017226674661
 20
-8.416114037122319
 30
0.0
 40
2.000000029802322
  1
 
 11
-15.49017226674661
 21
-7.416114022221158
 31
0.0
100
AcDbAttributeDefinition
  3
POCET ZUBU
  2
POCET_ZUBU
 70
     0
 74
     2
  0
ATTDEF
  5
1FA
330
1EA
100
AcDbEntity
  8
0
100
AcDbText
 10
-15.33601014647066
 20
-13.53290943866825
 30
0.0
 40
2.000000029802322
  1
 
 11
-15.33601014647066
 21
-12.53290942376709
 31
0.0
100
AcDbAttributeDefinition
  3
ROZTEC RETEZU
  2
ROZTEC_RETEZU
 70
     0
 74
     2
  0
ATTDEF
  5
1FB
330
1EA
100
AcDbEntity
  8
0
100
AcDbText
 10
-15.12682058011209
 20
-23.51280420717697
 30
0.0
 40
2.000000029802322
  1
 
 11
-15.12682058011209
 21
-22.51280419227581
 31
0.0
100
AcDbAttributeDefinition
  3
PRUMER ROZT. KRUZNICE
  2
PRUMER_ROZT._KRUZNICE
 70
     0
 74
     2
  0
ATTDEF
  5
1FC
330
1EA
100
AcDbEntity
  8
0
100
AcDbText
 10
-15.25190048274412
 20
-18.28228816441288
 30
0.0
 40
2.000000029802322
  1
 
 11
-15.25190048274412
 21
-17.28228814951172
 31
0.0
100
AcDbAttributeDefinition
  3
PRUMER VALECKU
  2
PRUMER_VALECKU
 70
     0
 74
     2
  0
ENDBLK
  5
1EC
330
1EA
100
AcDbEntity
  8
0
100
AcDbBlockEnd
  0
BLOCK
  5
1FE
330
1FD
100
AcDbEntity
  8
0
100
AcDbBlockBegin
  2
2_B-otočená
 70
     0
 10
34.25564047703247
 20
353.6893421246818
 30
0.0
  3
2_B-otočená
  1

  0
LINE
  5
200
330
1FD
100
AcDbEntity
  8
Čáry náčrtu
  6
Continuous
 48
0.0
370
    25
100
AcDbLine
 10
31.75564047703247
 20
349.6893421246818
 30
0.0
 11
31.75564047703247
 21
357.6893421246818
 31
0.0
  0
LINE
  5
201
330
1FD
100
AcDbEntity
  8
Čáry náčrtu
  6
Continuous
 48
0.0
370
    25
100
AcDbLine
 10
31.75564047703247
 20
357.6893421246818
 30
0.0
 11
36.75564047703247
 21
357.6893421246818
 31
0.0
  0
LINE
  5
202
330
1FD
100
AcDbEntity
  8
Čáry náčrtu
  6
Continuous
 48
0.0
370
    25
100
AcDbLine
 10
36.75564047703247
 20
357.6893421246818
 30
0.0
 11
36.75564047703247
 21
349.6893421246818
 31
0.0
  0
LINE
  5
203
330
1FD
100
AcDbEntity
  8
Čáry náčrtu
  6
Continuous
 48
0.0
370
    25
100
AcDbLine
 10
36.75564047703247
 20
349.6893421246818
 30
0.0
 11
31.75564047703247
 21
349.6893421246818
 31
0.0
  0
MTEXT
  5
204
330
1FD
100
AcDbEntity
  8
Text
370
     5
100
AcDbMText
 10
32.80409165273312
 20
350.5070376491914
 30
0.0
 40
3.000000119209289
 41
0.0
 71
     1
 72
     1
  1
\fISOCPEUR|b0|i0;\W1.00;\H3.0000;\l2/B
 11
0.0000000000002967
 21
1.0
 31
0.0
 73
     2
 44
0.859967827796936
1001
ACAD
1000
MTEXTBEGIN
1070
    73
1070
     2
1070
    44
1040
0.859967827796936
1070
    74
1070
     0
1000
MTEXTEND
  0
ENDBLK
  5
1FF
330
1FD
100
AcDbEntity
  8
0
100
AcDbBlockEnd
  0
BLOCK
  5
206
330
205
100
AcDbEntity
  8
0
100
AcDbBlockBegin
  2
3_B-otočená
 70
     0
 10
53.05841800921196
 20
334.1788271558307
 30
0.0
  3
3_B-otočená
  1

  0
LINE
  5
208
330
205
100
AcDbEntity
  8
Čáry náčrtu
  6
Continuous
 48
0.0
370
    25
100
AcDbLine
 10
50.55841800921196
 20
338.1788271558307
 30
0.0
 11
55.55841800921196
 21
338.1788271558307
 31
0.0
  0
LINE
  5
209
330
205
100
AcDbEntity
  8
Čáry náčrtu
  6
Continuous
 48
0.0
370
    25
100
AcDbLine
 10
55.55841800921196
 20
338.1788271558307
 30
0.0
 11
55.55841800921196
 21
330.1788271558308
 31
0.0
  0
LINE
  5
20A
330
205
100
AcDbEntity
  8
Čáry náčrtu
  6
Continuous
 48
0.0
370
    25
100
AcDbLine
 10
55.55841800921196
 20
330.1788271558308
 30
0.0
 11
50.55841800921196
 21
330.1788271558308
 31
0.0
  0
LINE
  5
20B
330
205
100
AcDbEntity
  8
Čáry náčrtu
  6
Continuous
 48
0.0
370
    25
100
AcDbLine
 10
50.55841800921196
 20
330.1788271558308
 30
0.0
 11
50.55841800921196
 21
338.1788271558307
 31
0.0
  0
MTEXT
  5
20C
330
205
100
AcDbEntity
  8
Text
370
     5
100
AcDbMText
 10
51.52096544794225
 20
330.9956495742067
 30
0.0
 40
3.000000119209289
 41
0.0
 71
     1
 72
     1
  1
\fISOCPEUR|b0|i0;\W1.00;\H3.0000;\l3/B
 11
0.0000000000002967
 21
1.0
 31
0.0
 73
     2
 44
0.859967827796936
1001
ACAD
1000
MTEXTBEGIN
1070
    73
1070
     2
1070
    44
1040
0.859967827796936
1070
    74
1070
     0
1000
MTEXTEND
  0
ENDBLK
  5
207
330
205
100
AcDbEntity
  8
0
100
AcDbBlockEnd
  0
BLOCK
  5
20E
330
20D
100
AcDbEntity
  8
0
100
AcDbBlockBegin
  2
ŠD
 70
     0
 10
27.18279205096001
 20
535.7517716281977
 30
0.0
  3
ŠD
  1

  0
LINE
  5
210
330
20D
100
AcDbEntity
  8
Čáry náčrtu
 48
0.0
370
    18
100
AcDbLine
 10
27.18279205096001
 20
535.7517716281977
 30
0.0
 11
27.18279205096001
 21
525.7517716281977
 31
0.0
  0
LINE
  5
211
330
20D
100
AcDbEntity
  8
Čáry náčrtu
 48
0.0
370
    18
100
AcDbLine
 10
27.18279205096001
 20
525.7517716281977
 30
0.0
 11
26.56564761848038
 21
529.2517716281976
 31
0.0
  0
LINE
  5
212
330
20D
100
AcDbEntity
  8
Čáry náčrtu
 48
0.0
370
    18
100
AcDbLine
 10
27.18279205096001
 20
525.7517716281977
 30
0.0
 11
27.79993648343966
 21
529.2517716281976
 31
0.0
  0
ENDBLK
  5
20F
330
20D
100
AcDbEntity
  8
0
100
AcDbBlockEnd
  0
BLOCK
  5
214
330
213
100
AcDbEntity
  8
0
100
AcDbBlockBegin
  2
ŠN
 70
     0
 10
27.18279205096003
 20
515.7517716281977
 30
0.0
  3
ŠN
  1

  0
LINE
  5
216
330
213
100
AcDbEntity
  8
Čáry náčrtu
 48
0.0
370
    18
100
AcDbLine
 10
27.18279205096003
 20
515.7517716281977
 30
0.0
 11
27.18279205096003
 21
525.7517716281977
 31
0.0
  0
LINE
  5
217
330
213
100
AcDbEntity
  8
Čáry náčrtu
 48
0.0
370
    18
100
AcDbLine
 10
27.18279205096003
 20
525.7517716281977
 30
0.0
 11
27.79993648343968
 21
522.2517716281977
 31
0.0
  0
LINE
  5
218
330
213
100
AcDbEntity
  8
Čáry náčrtu
 48
0.0
370
    18
100
AcDbLine
 10
27.18279205096003
 20
525.7517716281977
 30
0.0
 11
26.56564761848038
 21
522.2517716281976
 31
0.0
  0
ENDBLK
  5
215
330
213
100
AcDbEntity
  8
0
100
AcDbBlockEnd
  0
BLOCK
  5
21A
330
219
100
AcDbEntity
  8
0
100
AcDbBlockBegin
  2
ŠP
 70
     0
 10
17.18279205096003
 20
525.7517716281977
 30
0.0
  3
ŠP
  1

  0
LINE
  5
21C
330
219
100
AcDbEntity
  8
Čáry náčrtu
 48
0.0
370
    18
100
AcDbLine
 10
17.18279205096003
 20
525.7517716281977
 30
0.0
 11
27.18279205096003
 21
525.7517716281977
 31
0.0
  0
LINE
  5
21D
330
219
100
AcDbEntity
  8
Čáry náčrtu
 48
0.0
370
    18
100
AcDbLine
 10
27.18279205096003
 20
525.7517716281977
 30
0.0
 11
23.68279205096002
 21
525.1346271957181
 31
0.0
  0
LINE
  5
21E
330
219
100
AcDbEntity
  8
Čáry náčrtu
 48
0.0
370
    18
100
AcDbLine
 10
27.18279205096003
 20
525.7517716281977
 30
0.0
 11
23.68279205095995
 21
526.3689160606772
 31
0.0
  0
ENDBLK
  5
21B
330
219
100
AcDbEntity
  8
0
100
AcDbBlockEnd
  0
BLOCK
  5
220
330
21F
100
AcDbEntity
  8
0
100
AcDbBlockBegin
  2
ŠL
 70
     0
 10
37.18279205096003
 20
525.7517716281977
 30
0.0
  3
ŠL
  1

  0
LINE
  5
222
330
21F
100
AcDbEntity
  8
Čáry náčrtu
 48
0.0
370
    18
100
AcDbLine
 10
37.18279205096003
 20
525.7517716281977
 30
0.0
 11
27.18279205096003
 21
525.7517716281977
 31
0.0
  0
LINE
  5
223
330
21F
100
AcDbEntity
  8
Čáry náčrtu
 48
0.0
370
    18
100
AcDbLine
 10
27.18279205096003
 20
525.7517716281977
 30
0.0
 11
30.68279205096005
 21
526.3689160606772
 31
0.0
  0
LINE
  5
224
330
21F
100
AcDbEntity
  8
Čáry náčrtu
 48
0.0
370
    18
100
AcDbLine
 10
27.18279205096003
 20
525.7517716281977
 30
0.0
 11
30.68279205096012
 21
525.1346271957181
 31
0.0
  0
ENDBLK
  5
221
330
21F
100
AcDbEntity
  8
0
100
AcDbBlockEnd
  0
BLOCK
  5
226
330
225
100
AcDbEntity
  8
0
100
AcDbBlockBegin
  2
Č. plochy
 70
     2
 10
297.9220159553248
 20
263.7130342289137
 30
0.0
  3
Č. plochy
  1

  0
CIRCLE
  5
228
330
225
100
AcDbEntity
  8
Čáry náčrtu
 48
0.0
370
    18
100
AcDbCircle
 10
297.9220159553248
 20
263.7130342289137
 30
0.0
 40
5.0
  0
ATTDEF
  5
229
330
225
100
AcDbEntity
  8
0
100
AcDbText
 10
296.8882228007207
 20
261.3174124053056
 30
0.0
 40
5.003799796104431
  1
 
 72
     1
 11
298.0005972844063
 21
266.3212122014101
 31
0.0
100
AcDbAttributeDefinition
  3
Plocha
  2
Plocha
 70
     0
 74
     3
  0
ENDBLK
  5
227
330
225
100
AcDbEntity
  8
0
100
AcDbBlockEnd
  0
BLOCK
  5
22B
330
22A
100
AcDbEntity
  8
0
100
AcDbBlockBegin
  2
Otočeno
 70
     0
 10
36.98146661328444
 20
266.3485646023619
 30
0.0
  3
Otočeno
  1

  0
CIRCLE
  5
22D
330
22A
100
AcDbEntity
  8
Čáry náčrtu
 48
0.0
370
    18
100
AcDbCircle
 10
36.25244666750953
 20
266.3485646023619
 30
0.0
 40
3.0
  0
LINE
  5
22E
330
22A
100
AcDbEntity
  8
Čáry náčrtu
 48
0.0
370
    18
100
AcDbLine
 10
39.21048655905934
 20
265.8485646023619
 30
0.0
 11
37.71048655905935
 21
266.8485646023619
 31
0.0
  0
LINE
  5
22F
330
22A
100
AcDbEntity
  8
Čáry náčrtu
 48
0.0
370
    18
100
AcDbLine
 10
39.21048655905934
 20
265.8485646023619
 30
0.0
 11
40.71048655905934
 21
266.8485646023619
 31
0.0
  0
ENDBLK
  5
22C
330
22A
100
AcDbEntity
  8
0
100
AcDbBlockEnd
  0
BLOCK
  5
231
330
230
100
AcDbEntity
  8
0
100
AcDbBlockBegin
  2
základna
 70
     0
 10
30.4633560098899
 20
553.024132962069
 30
0.0
  3
základna
  1

  0
CIRCLE
  5
233
330
230
100
AcDbEntity
  8
Čáry náčrtu
 48
0.0
370
    50
100
AcDbCircle
 10
30.4633560098899
 20
553.024132962069
 30
0.0
 40
1.5
  0
LINE
  5
234
330
230
100
AcDbEntity
  8
Čáry náčrtu
 48
0.0
370
    50
100
AcDbLine
 10
29.40269583811012
 20
551.9634727902893
 30
0.0
 11
31.52401618166976
 21
554.0847931338488
 31
0.0
  0
LINE
  5
235
330
230
100
AcDbEntity
  8
Čáry náčrtu
 48
0.0
370
    50
100
AcDbLine
 10
29.72394630735151
 20
551.7190378345814
 30
0.0
 11
31.76845113737755
 21
553.7635426646074
 31
0.0
  0
LINE
  5
236
330
230
100
AcDbEntity
  8
Čáry náčrtu
 48
0.0
370
    50
100
AcDbLine
 10
30.13182351259282
 20
551.5612296148734
 30
0.0
 11
31.92625935708544
 21
553.355665459366
 31
0.0
  0
LINE
  5
237
330
230
100
AcDbEntity
  8
Čáry náčrtu
 48
0.0
370
    50
100
AcDbLine
 10
30.67548804424597
 20
551.5392087215773
 30
0.0
 11
31.94828025038165
 21
552.812000927713
 31
0.0
  0
LINE
  5
238
330
230
100
AcDbEntity
  8
Čáry náčrtu
 48
0.0
370
    50
100
AcDbLine
 10
29.15826088240224
 20
552.2847232595307
 30
0.0
 11
31.20276571242834
 21
554.3292280895567
 31
0.0
  0
LINE
  5
239
330
230
100
AcDbEntity
  8
Čáry náčrtu
 48
0.0
370
    50
100
AcDbLine
 10
29.00045266269435
 20
552.692600464772
 30
0.0
 11
30.79488850718694
 21
554.4870363092647
 31
0.0
  0
LINE
  5
23A
330
230
100
AcDbEntity
  8
Čáry náčrtu
 48
0.0
370
    50
100
AcDbLine
 10
28.97843176939821
 20
553.2362649964252
 30
0.0
 11
30.2512239755338
 21
554.5090572025608
 31
0.0
  0
ENDBLK
  5
232
330
230
100
AcDbEntity
  8
0
100
AcDbBlockEnd
  0
BLOCK
  5
23C
330
23B
100
AcDbEntity
  8
0
100
AcDbBlockBegin
  2
Řez nahoru pravý
 70
     2
 10
27.18279205096003
 20
525.7517716281977
 30
0.0
  3
Řez nahoru pravý
  1

  0
LINE
  5
23E
330
23B
100
AcDbEntity
  8
Čáry náčrtu
 48
0.0
370
    18
100
AcDbLine
 10
27.18279205096003
 20
515.7517716281977
 30
0.0
 11
27.18279205096003
 21
525.7517716281977
 31
0.0
  0
LINE
  5
23F
330
23B
100
AcDbEntity
  8
Čáry náčrtu
 48
0.0
370
    18
100
AcDbLine
 10
27.18279205096003
 20
525.7517716281977
 30
0.0
 11
27.79993648343968
 21
522.2517716281977
 31
0.0
  0
LINE
  5
240
330
23B
100
AcDbEntity
  8
Čáry náčrtu
 48
0.0
370
    18
100
AcDbLine
 10
27.18279205096003
 20
525.7517716281977
 30
0.0
 11
26.56564761848038
 21
522.2517716281976
 31
0.0
  0
LINE
  5
241
330
23B
100
AcDbEntity
  8
Čáry náčrtu
  6
Continuous
 48
0.0
370
    70
100
AcDbLine
 10
29.68279205096003
 20
525.7517716281977
 30
0.0
 11
24.68279205096003
 21
525.7517716281977
 31
0.0
  0
ATTDEF
  5
242
330
23B
100
AcDbEntity
  8
0
100
AcDbText
 10
28.91577151927835
 20
517.4125115333902
 30
0.0
 40
5.003799796104431
  1
 
 11
28.91577151927835
 21
522.4163113294946
 31
0.0
100
AcDbAttributeDefinition
  3
ŘEZ
  2
ŘEZ
 70
     0
 74
     3
  0
ATTDEF
  5
243
330
23B
100
AcDbEntity
  8
0
100
AcDbText
 10
25.97227027203229
 20
510.3900225394146
 30
0.0
 40
3.499999940395355
  1
 
 72
     1
 11
26.75034109525507
 21
513.8900224798099
 31
0.0
100
AcDbAttributeDefinition
  3
Č.DÍLU
  2
Č.DÍLU
 70
     0
 74
     3
  0
ENDBLK
  5
23D
330
23B
100
AcDbEntity
  8
0
100
AcDbBlockEnd
  0
BLOCK
  5
245
330
244
100
AcDbEntity
  8
0
100
AcDbBlockBegin
  2
Řez nahoru levý
 70
     2
 10
27.18279205096003
 20
525.7517716281977
 30
0.0
  3
Řez nahoru levý
  1

  0
LINE
  5
247
330
244
100
AcDbEntity
  8
Čáry náčrtu
 48
0.0
370
    18
100
AcDbLine
 10
27.18279205096003
 20
515.7517716281977
 30
0.0
 11
27.18279205096003
 21
525.7517716281977
 31
0.0
  0
LINE
  5
248
330
244
100
AcDbEntity
  8
Čáry náčrtu
 48
0.0
370
    18
100
AcDbLine
 10
27.18279205096003
 20
525.7517716281977
 30
0.0
 11
27.79993648343968
 21
522.2517716281977
 31
0.0
  0
LINE
  5
249
330
244
100
AcDbEntity
  8
Čáry náčrtu
 48
0.0
370
    18
100
AcDbLine
 10
27.18279205096003
 20
525.7517716281977
 30
0.0
 11
26.56564761848038
 21
522.2517716281976
 31
0.0
  0
LINE
  5
24A
330
244
100
AcDbEntity
  8
Čáry náčrtu
  6
Continuous
 48
0.0
370
    70
100
AcDbLine
 10
29.68279205096003
 20
525.7517716281977
 30
0.0
 11
24.68279205096003
 21
525.7517716281977
 31
0.0
  0
ATTDEF
  5
24B
330
244
100
AcDbEntity
  8
0
100
AcDbText
 10
22.90501778913271
 20
517.2579807262125
 30
0.0
 40
5.003799796104431
  1
 
 72
     2
 11
25.12976675650393
 21
522.2617805223169
 31
0.0
100
AcDbAttributeDefinition
  3
ŘEZ
  2
ŘEZ
 70
     0
 74
     3
  0
ATTDEF
  5
24C
330
244
100
AcDbEntity
  8
0
100
AcDbText
 10
25.97227027203229
 20
510.3900225394146
 30
0.0
 40
3.499999940395355
  1
 
 72
     1
 11
26.75034109525507
 21
513.8900224798099
 31
0.0
100
AcDbAttributeDefinition
  3
Č.DÍLU
  2
Č.DÍLU
 70
     0
 74
     3
  0
ENDBLK
  5
246
330
244
100
AcDbEntity
  8
0
100
AcDbBlockEnd
  0
BLOCK
  5
24E
330
24D
100
AcDbEntity
  8
0
100
AcDbBlockBegin
  2
Řez doleva horní
 70
     2
 10
29.68279205096003
 20
523.2517716281977
 30
0.0
  3
Řez doleva horní
  1

  0
LINE
  5
250
330
24D
100
AcDbEntity
  8
Čáry náčrtu
 48
0.0
370
    18
100
AcDbLine
 10
39.68279205096003
 20
523.2517716281977
 30
0.0
 11
29.68279205096003
 21
523.2517716281977
 31
0.0
  0
LINE
  5
251
330
24D
100
AcDbEntity
  8
Čáry náčrtu
 48
0.0
370
    18
100
AcDbLine
 10
29.68279205096003
 20
523.2517716281977
 30
0.0
 11
33.18279205096005
 21
523.8689160606773
 31
0.0
  0
LINE
  5
252
330
24D
100
AcDbEntity
  8
Čáry náčrtu
 48
0.0
370
    18
100
AcDbLine
 10
29.68279205096003
 20
523.2517716281977
 30
0.0
 11
33.18279205096012
 21
522.634627195718
 31
0.0
  0
LINE
  5
253
330
24D
100
AcDbEntity
  8
Čáry náčrtu
  6
Continuous
 48
0.0
370
    70
100
AcDbLine
 10
29.68279205096003
 20
525.7517716281977
 30
0.0
 11
29.68279205096003
 21
520.7517716281977
 31
0.0
  0
ATTDEF
  5
254
330
24D
100
AcDbEntity
  8
0
100
AcDbText
 10
34.36642494858785
 20
526.4013088580627
 30
0.0
 40
5.003799796104431
  1
 
 11
34.36642494858785
 21
531.4051086541671
 31
0.0
100
AcDbAttributeDefinition
  3
ŘEZ
  2
ŘEZ
 70
     0
 74
     3
  0
ATTDEF
  5
255
330
24D
100
AcDbEntity
  8
0
100
AcDbText
 10
34.99182029973741
 20
515.7118556789076
 30
0.0
 40
3.499999940395355
  1
 
 72
     1
 11
35.7698911229602
 21
519.211855619303
 31
0.0
100
AcDbAttributeDefinition
  3
Č.DÍLU
  2
Č.DÍLU
 70
     0
 74
     3
  0
ENDBLK
  5
24F
330
24D
100
AcDbEntity
  8
0
100
AcDbBlockEnd
  0
BLOCK
  5
257
330
256
100
AcDbEntity
  8
0
100
AcDbBlockBegin
  2
Řez doleva spodní
 70
     2
 10
29.68279205096003
 20
523.2517716281977
 30
0.0
  3
Řez doleva spodní
  1

  0
LINE
  5
259
330
256
100
AcDbEntity
  8
Čáry náčrtu
 48
0.0
370
    18
100
AcDbLine
 10
39.68279205096003
 20
523.2517716281977
 30
0.0
 11
29.68279205096003
 21
523.2517716281977
 31
0.0
  0
LINE
  5
25A
330
256
100
AcDbEntity
  8
Čáry náčrtu
 48
0.0
370
    18
100
AcDbLine
 10
29.68279205096003
 20
523.2517716281977
 30
0.0
 11
33.18279205096005
 21
523.8689160606773
 31
0.0
  0
LINE
  5
25B
330
256
100
AcDbEntity
  8
Čáry náčrtu
 48
0.0
370
    18
100
AcDbLine
 10
29.68279205096003
 20
523.2517716281977
 30
0.0
 11
33.18279205096012
 21
522.634627195718
 31
0.0
  0
LINE
  5
25C
330
256
100
AcDbEntity
  8
Čáry náčrtu
  6
Continuous
 48
0.0
370
    70
100
AcDbLine
 10
29.68279205096003
 20
525.7517716281977
 30
0.0
 11
29.68279205096003
 21
520.7517716281977
 31
0.0
  0
ATTDEF
  5
25D
330
256
100
AcDbEntity
  8
0
100
AcDbText
 10
34.17517395106822
 20
515.8825034781267
 30
0.0
 40
5.003799796104431
  1
 
 11
34.17517395106822
 21
520.8863032742311
 31
0.0
100
AcDbAttributeDefinition
  3
ŘEZ
  2
ŘEZ
 70
     0
 74
     3
  0
ATTDEF
  5
25E
330
256
100
AcDbEntity
  8
0
100
AcDbText
 10
35.10328444884478
 20
528.2095612357807
 30
0.0
 40
3.499999940395355
  1
 
 72
     1
 11
35.88135527206757
 21
531.709561176176
 31
0.0
100
AcDbAttributeDefinition
  3
Č.DÍLU
  2
Č.DÍLU
 70
     0
 74
     3
  0
ENDBLK
  5
258
330
256
100
AcDbEntity
  8
0
100
AcDbBlockEnd
  0
BLOCK
  5
260
330
25F
100
AcDbEntity
  8
0
100
AcDbBlockBegin
  2
Řez doprava horní
 70
     2
 10
49.68279205096003
 20
523.2517716281977
 30
0.0
  3
Řez doprava horní
  1

  0
LINE
  5
262
330
25F
100
AcDbEntity
  8
Čáry náčrtu
 48
0.0
370
    18
100
AcDbLine
 10
39.68279205096003
 20
523.2517716281977
 30
0.0
 11
49.68279205096003
 21
523.2517716281977
 31
0.0
  0
LINE
  5
263
330
25F
100
AcDbEntity
  8
Čáry náčrtu
 48
0.0
370
    18
100
AcDbLine
 10
49.68279205096003
 20
523.2517716281977
 30
0.0
 11
46.18279205096001
 21
522.634627195718
 31
0.0
  0
LINE
  5
264
330
25F
100
AcDbEntity
  8
Čáry náčrtu
 48
0.0
370
    18
100
AcDbLine
 10
49.68279205096003
 20
523.2517716281977
 30
0.0
 11
46.18279205095994
 21
523.8689160606773
 31
0.0
  0
LINE
  5
265
330
25F
100
AcDbEntity
  8
Čáry náčrtu
  6
Continuous
 48
0.0
370
    70
100
AcDbLine
 10
49.68279205096003
 20
520.7517716281977
 30
0.0
 11
49.68279205096003
 21
525.7517716281977
 31
0.0
  0
ATTDEF
  5
266
330
25F
100
AcDbEntity
  8
0
100
AcDbText
 10
41.75596450776393
 20
526.4637393075879
 30
0.0
 40
5.003799796104431
  1
 
 72
     2
 11
43.98071347513516
 21
531.4675391036923
 31
0.0
100
AcDbAttributeDefinition
  3
ŘEZ
  2
ŘEZ
 70
     0
 74
     3
  0
ATTDEF
  5
267
330
25F
100
AcDbEntity
  8
0
100
AcDbText
 10
48.32303004144771
 20
516.2112992751085
 30
0.0
 40
3.499999940395355
  1
 
 72
     2
 11
49.87917168789326
 21
519.7112992155039
 31
0.0
100
AcDbAttributeDefinition
  3
Č.DÍLU
  2
Č.DÍLU
 70
     0
 74
     3
  0
ENDBLK
  5
261
330
25F
100
AcDbEntity
  8
0
100
AcDbBlockEnd
  0
BLOCK
  5
269
330
268
100
AcDbEntity
  8
0
100
AcDbBlockBegin
  2
Řez doprava spodní
 70
     2
 10
49.68279205096003
 20
523.2517716281977
 30
0.0
  3
Řez doprava spodní
  1

  0
LINE
  5
26B
330
268
100
AcDbEntity
  8
Čáry náčrtu
 48
0.0
370
    18
100
AcDbLine
 10
39.68279205096003
 20
523.2517716281977
 30
0.0
 11
49.68279205096003
 21
523.2517716281977
 31
0.0
  0
LINE
  5
26C
330
268
100
AcDbEntity
  8
Čáry náčrtu
 48
0.0
370
    18
100
AcDbLine
 10
49.68279205096003
 20
523.2517716281977
 30
0.0
 11
46.18279205096001
 21
522.634627195718
 31
0.0
  0
LINE
  5
26D
330
268
100
AcDbEntity
  8
Čáry náčrtu
 48
0.0
370
    18
100
AcDbLine
 10
49.68279205096003
 20
523.2517716281977
 30
0.0
 11
46.18279205095994
 21
523.8689160606773
 31
0.0
  0
LINE
  5
26E
330
268
100
AcDbEntity
  8
Čáry náčrtu
  6
Continuous
 48
0.0
370
    70
100
AcDbLine
 10
49.68279205096003
 20
520.7517716281977
 30
0.0
 11
49.68279205096003
 21
525.7517716281977
 31
0.0
  0
ATTDEF
  5
26F
330
268
100
AcDbEntity
  8
0
100
AcDbText
 10
41.98776071772971
 20
516.960094666165
 30
0.0
 40
5.003799796104431
  1
 
 72
     2
 11
44.21250968510094
 21
521.9638944622694
 31
0.0
100
AcDbAttributeDefinition
  3
ŘEZ
  2
ŘEZ
 70
     0
 74
     3
  0
ATTDEF
  5
270
330
268
100
AcDbEntity
  8
0
100
AcDbText
 10
48.24576463812578
 20
529.1146216744388
 30
0.0
 40
3.499999940395355
  1
 
 72
     2
 11
49.80190628457134
 21
532.6146216148341
 31
0.0
100
AcDbAttributeDefinition
  3
Č.DÍLU
  2
Č.DÍLU
 70
     0
 74
     3
  0
ENDBLK
  5
26A
330
268
100
AcDbEntity
  8
0
100
AcDbBlockEnd
  0
BLOCK
  5
272
330
271
100
AcDbEntity
  8
0
100
AcDbBlockBegin
  2
Řez dolů pravý
 70
     2
 10
27.18279205096003
 20
505.7517716281977
 30
0.0
  3
Řez dolů pravý
  1

  0
LINE
  5
274
330
271
100
AcDbEntity
  8
Čáry náčrtu
 48
0.0
370
    18
100
AcDbLine
 10
27.18279205096003
 20
515.7517716281977
 30
0.0
 11
27.18279205096003
 21
505.7517716281977
 31
0.0
  0
LINE
  5
275
330
271
100
AcDbEntity
  8
Čáry náčrtu
 48
0.0
370
    18
100
AcDbLine
 10
27.18279205096003
 20
505.7517716281977
 30
0.0
 11
26.56564761848038
 21
509.2517716281977
 31
0.0
  0
LINE
  5
276
330
271
100
AcDbEntity
  8
Čáry náčrtu
 48
0.0
370
    18
100
AcDbLine
 10
27.18279205096003
 20
505.7517716281977
 30
0.0
 11
27.79993648343968
 21
509.2517716281977
 31
0.0
  0
LINE
  5
277
330
271
100
AcDbEntity
  8
Čáry náčrtu
  6
Continuous
 48
0.0
370
    70
100
AcDbLine
 10
24.68279205096004
 20
505.7517716281977
 30
0.0
 11
29.68279205096004
 21
505.7517716281977
 31
0.0
  0
ATTDEF
  5
278
330
271
100
AcDbEntity
  8
0
100
AcDbText
 10
28.91577151927835
 20
511.7706068296064
 30
0.0
 40
5.003799796104431
  1
 
 11
28.91577151927835
 21
516.7744066257109
 31
0.0
100
AcDbAttributeDefinition
  3
ŘEZ
  2
ŘEZ
 70
     0
 74
     3
  0
ATTDEF
  5
279
330
271
100
AcDbEntity
  8
0
100
AcDbText
 10
26.35477226707155
 20
518.9963178502714
 30
0.0
 40
3.499999940395355
  1
 
 72
     1
 11
27.13284309029433
 21
522.4963177906667
 31
0.0
100
AcDbAttributeDefinition
  3
Č.DÍLU
  2
Č.DÍLU
 70
     0
 74
     3
  0
ENDBLK
  5
273
330
271
100
AcDbEntity
  8
0
100
AcDbBlockEnd
  0
BLOCK
  5
27B
330
27A
100
AcDbEntity
  8
0
100
AcDbBlockBegin
  2
Řez dolů levý
 70
     2
 10
27.18279205096003
 20
505.7517716281977
 30
0.0
  3
Řez dolů levý
  1

  0
LINE
  5
27D
330
27A
100
AcDbEntity
  8
Čáry náčrtu
 48
0.0
370
    18
100
AcDbLine
 10
27.18279205096003
 20
515.7517716281977
 30
0.0
 11
27.18279205096003
 21
505.7517716281977
 31
0.0
  0
LINE
  5
27E
330
27A
100
AcDbEntity
  8
Čáry náčrtu
 48
0.0
370
    18
100
AcDbLine
 10
27.18279205096003
 20
505.7517716281977
 30
0.0
 11
26.56564761848038
 21
509.2517716281977
 31
0.0
  0
LINE
  5
27F
330
27A
100
AcDbEntity
  8
Čáry náčrtu
 48
0.0
370
    18
100
AcDbLine
 10
27.18279205096003
 20
505.7517716281977
 30
0.0
 11
27.79993648343968
 21
509.2517716281977
 31
0.0
  0
LINE
  5
280
330
27A
100
AcDbEntity
  8
Čáry náčrtu
  6
Continuous
 48
0.0
370
    70
100
AcDbLine
 10
24.68279205096004
 20
505.7517716281977
 30
0.0
 11
29.68279205096004
 21
505.7517716281977
 31
0.0
  0
ATTDEF
  5
281
330
27A
100
AcDbEntity
  8
0
100
AcDbText
 10
22.55853293289415
 20
511.4584545819808
 30
0.0
 40
5.003799796104431
  1
 
 72
     2
 11
24.78328190026538
 21
516.4622543780852
 31
0.0
100
AcDbAttributeDefinition
  3
ŘEZ
  2
ŘEZ
 70
     0
 74
     3
  0
ATTDEF
  5
282
330
27A
100
AcDbEntity
  8
0
100
AcDbText
 10
26.35477226707155
 20
518.9963178502714
 30
0.0
 40
3.499999940395355
  1
 
 72
     1
 11
27.13284309029433
 21
522.4963177906667
 31
0.0
100
AcDbAttributeDefinition
  3
Č.DÍLU
  2
Č.DÍLU
 70
     0
 74
     3
  0
ENDBLK
  5
27C
330
27A
100
AcDbEntity
  8
0
100
AcDbBlockEnd
  0
BLOCK
  5
284
330
283
100
AcDbEntity
  8
0
100
AcDbBlockBegin
  2
Značka pohledu
 70
     2
 10
164.506
 20
440.004
 30
0.0
  3
Značka pohledu
  1

  0
ATTDEF
  5
286
330
283
100
AcDbEntity
  8
0
100
AcDbText
 10
164.506
 20
435.0002002038956
 30
0.0
 40
5.003799796104431
  1
 
 11
164.506
 21
440.004
 31
0.0
100
AcDbAttributeDefinition
  3
Pohled
  2
Pohled
 70
     0
 74
     3
  0
ENDBLK
  5
285
330
283
100
AcDbEntity
  8
0
100
AcDbBlockEnd
  0
BLOCK
  5
288
330
287
100
AcDbEntity
  8
0
100
AcDbBlockBegin
  2
Označení osy
 70
     2
 10
165.497
 20
442.9770000000001
 30
0.0
  3
Označení osy
  1

  0
ATTDEF
  5
28A
330
287
100
AcDbEntity
  8
0
100
AcDbText
 10
165.497
 20
437.9732002038956
 30
0.0
 40
5.003799796104431
  1
 
 11
165.497
 21
442.9770000000001
 31
0.0
100
AcDbAttributeDefinition
  3
Osa
  2
Osa
 70
     0
 74
     3
  0
ENDBLK
  5
289
330
287
100
AcDbEntity
  8
0
100
AcDbBlockEnd
  0
BLOCK
  5
28C
330
28B
100
AcDbEntity
  8
0
100
AcDbBlockBegin
  2
Průměr
 70
     0
 10
223.3848204638958
 20
498.6246428916621
 30
0.0
  3
Průměr
  1

  0
MTEXT
  5
28E
330
28B
100
AcDbEntity
  8
Text
370
     5
100
AcDbMText
 10
221.984
 20
500.455
 30
0.0
 40
2.5
 41
0.0
 71
     1
 72
     1
  1
\fAIGDT|b0|i0;\W1.00;\H2.5000;\ln
 73
     2
 44
1.265850186347961
1001
ACAD
1000
MTEXTBEGIN
1070
    73
1070
     2
1070
    44
1040
1.265850186347961
1070
    74
1070
     0
1000
MTEXTEND
  0
ENDBLK
  5
28D
330
28B
100
AcDbEntity
  8
0
100
AcDbBlockEnd
  0
BLOCK
  5
290
330
28F
100
AcDbEntity
  8
0
100
AcDbBlockBegin
  2
5_B
 70
     0
 10
54.55841800921195
 20
332.6788271558307
 30
0.0
  3
5_B
  1

  0
LINE
  5
292
330
28F
100
AcDbEntity
  8
Čáry náčrtu
  6
Continuous
 48
0.0
370
    25
100
AcDbLine
 10
50.55841800921196
 20
335.1788271558307
 30
0.0
 11
58.55841800921194
 21
335.1788271558307
 31
0.0
  0
LINE
  5
293
330
28F
100
AcDbEntity
  8
Čáry náčrtu
  6
Continuous
 48
0.0
370
    25
100
AcDbLine
 10
58.55841800921194
 20
335.1788271558307
 30
0.0
 11
58.55841800921196
 21
330.1788271558308
 31
0.0
  0
LINE
  5
294
330
28F
100
AcDbEntity
  8
Čáry náčrtu
  6
Continuous
 48
0.0
370
    25
100
AcDbLine
 10
58.55841800921196
 20
330.1788271558308
 30
0.0
 11
50.55841800921196
 21
330.1788271558308
 31
0.0
  0
LINE
  5
295
330
28F
100
AcDbEntity
  8
Čáry náčrtu
  6
Continuous
 48
0.0
370
    25
100
AcDbLine
 10
50.55841800921196
 20
330.1788271558308
 30
0.0
 11
50.55841800921196
 21
335.1788271558307
 31
0.0
  0
MTEXT
  5
296
330
28F
100
AcDbEntity
  8
Text
370
     5
100
AcDbMText
 10
51.3628234053106
 20
334.3166325187742
 30
0.0
 40
3.000000119209289
 41
0.0
 71
     1
 72
     1
  1
\fISOCPEUR|b0|i0;\W1.00;\H3.0000;\l5/B
 73
     2
 44
0.859967827796936
1001
ACAD
1000
MTEXTBEGIN
1070
    73
1070
     2
1070
    44
1040
0.859967827796936
1070
    74
1070
     0
1000
MTEXTEND
  0
ENDBLK
  5
291
330
28F
100
AcDbEntity
  8
0
100
AcDbBlockEnd
  0
BLOCK
  5
298
330
297
100
AcDbEntity
  8
0
100
AcDbBlockBegin
  2
Odkaz na který díl
 70
     2
 10
623.339
 20
98.10900000000001
 30
0.0
  3
Odkaz na který díl
  1

  0
ATTDEF
  5
29A
330
297
100
AcDbEntity
  8
0
100
AcDbText
 10
623.339
 20
94.60900005960466
 30
0.0
 40
3.499999940395355
  1
 
 11
623.339
 21
98.10900000000001
 31
0.0
100
AcDbAttributeDefinition
  3
Na kterém dílu
  2
Na_kterém_dílu
 70
     0
 74
     3
  0
ENDBLK
  5
299
330
297
100
AcDbEntity
  8
0
100
AcDbBlockEnd
  0
BLOCK
  5
29C
330
29B
100
AcDbEntity
  8
0
100
AcDbBlockBegin
  2
Číslo díry
 70
     2
 10
116.8369698900351
 20
487.3212767690183
 30
0.0
  3
Číslo díry
  1

  0
ATTDEF
  5
29E
330
29B
100
AcDbEntity
  8
0
100
AcDbText
 10
116.8369698900351
 20
489.6449391258293
 30
0.0
 40
3.499999940395355
  1
 
 11
116.8369698900351
 21
487.3212767690183
 31
0.0
100
AcDbAttributeDefinition
  3
Č.DÍRY
  2
Č.DÍRY
 70
     0
 74
     1
  0
ENDBLK
  5
29D
330
29B
100
AcDbEntity
  8
0
100
AcDbBlockEnd
  0
BLOCK
  5
2A0
330
29F
100
AcDbEntity
  8
0
100
AcDbBlockBegin
  2
ŠP-s textem
 70
     2
 10
17.99484540634398
 20
523.2174076134832
 30
0.0
  3
ŠP-s textem
  1

  0
LINE
  5
2A2
330
29F
100
AcDbEntity
  8
Čáry náčrtu
 48
0.0
370
    18
100
AcDbLine
 10
17.99484540634398
 20
523.2174076134831
 30
0.0
 11
27.6789105324419
 21
523.2174076134831
 31
0.0
  0
LINE
  5
2A3
330
29F
100
AcDbEntity
  8
Čáry náčrtu
 48
0.0
370
    18
100
AcDbLine
 10
27.6789105324419
 20
523.2174076134831
 30
0.0
 11
24.54451024269186
 21
522.5840522977478
 31
0.0
  0
LINE
  5
2A4
330
29F
100
AcDbEntity
  8
Čáry náčrtu
 48
0.0
370
    18
100
AcDbLine
 10
27.6789105324419
 20
523.2174076134831
 30
0.0
 11
24.54451024269186
 21
523.8507629292183
 31
0.0
  0
ATTDEF
  5
2A5
330
29F
100
AcDbEntity
  8
0
100
AcDbText
 10
-11.17743753349144
 20
524.2677078404518
 30
0.0
 40
3.499999940395355
  1
 
 11
-11.17743753349144
 21
527.7677077808472
 31
0.0
100
AcDbAttributeDefinition
  3
TEXT
  2
TEXT
 70
     0
 74
     3
  0
ENDBLK
  5
2A1
330
29F
100
AcDbEntity
  8
0
100
AcDbBlockEnd
  0
BLOCK
  5
2A7
330
2A6
100
AcDbEntity
  8
0
100
AcDbBlockBegin
  2
ŠL-s textem
 70
     2
 10
26.60127947434615
 20
523.2174076134832
 30
0.0
  3
ŠL-s textem
  1

  0
LINE
  5
2A9
330
2A6
100
AcDbEntity
  8
Čáry náčrtu
 48
0.0
370
    18
100
AcDbLine
 10
26.60127947434615
 20
523.2174076134831
 30
0.0
 11
16.91721434824823
 21
523.2174076134831
 31
0.0
  0
LINE
  5
2AA
330
2A6
100
AcDbEntity
  8
Čáry náčrtu
 48
0.0
370
    18
100
AcDbLine
 10
16.91721434824823
 20
523.2174076134831
 30
0.0
 11
20.05161463799828
 21
523.8507629292183
 31
0.0
  0
LINE
  5
2AB
330
2A6
100
AcDbEntity
  8
Čáry náčrtu
 48
0.0
370
    18
100
AcDbLine
 10
16.91721434824823
 20
523.2174076134831
 30
0.0
 11
20.05161463799828
 21
522.5840522977478
 31
0.0
  0
ATTDEF
  5
2AC
330
2A6
100
AcDbEntity
  8
0
100
AcDbText
 10
-12.95135633458995
 20
525.1240878199778
 30
0.0
 40
3.499999940395355
  1
 
 11
-12.95135633458995
 21
528.6240877603732
 31
0.0
100
AcDbAttributeDefinition
  3
TEXT
  2
TEXT
 70
     0
 74
     3
  0
ENDBLK
  5
2A8
330
2A6
100
AcDbEntity
  8
0
100
AcDbBlockEnd
  0
BLOCK
  5
2AE
330
2AD
100
AcDbEntity
  8
0
100
AcDbBlockBegin
  2
POLOMĚR OHYBU R2
 70
     0
 10
50.18476585384476
 20
90.5212804323286
 30
0.0
  3
POLOMĚR OHYBU R2
  1

  0
MTEXT
  5
2B0
330
2AD
100
AcDbEntity
  8
Text
370
     5
100
AcDbMText
 10
28.66366247173417
 20
88.07160515385239
 30
0.0
 40
3.499999940395355
 41
0.0
 71
     7
 72
     1
  1
POLOMĚR OHYBU R2
 73
     2
 44
0.8599677681922912
1001
ACAD
1000
MTEXTBEGIN
1070
    73
1070
     2
1070
    44
1040
0.8599677681922912
1070
    74
1070
     0
1000
MTEXTEND
  0
ENDBLK
  5
2AF
330
2AD
100
AcDbEntity
  8
0
100
AcDbBlockEnd
  0
BLOCK
  5
2B2
330
2B1
100
AcDbEntity
  8
0
100
AcDbBlockBegin
  2
Rozvin dle DXF
 70
     2
 10
107.6625724846175
 20
238.9920420192584
 30
0.0
  3
Rozvin dle DXF
  1

  0
MTEXT
  5
2B4
330
2B1
100
AcDbEntity
  8
Text
370
     5
100
AcDbMText
 10
83.69341812670731
 20
241.4417172977346
 30
0.0
 40
3.499999940395355
 41
0.0
 71
     1
 72
     1
  1
ROZVINUTÝ TVAR DLE
 73
     2
 44
0.8599677681922912
1001
ACAD
1000
MTEXTBEGIN
1070
    73
1070
     2
1070
    44
1040
0.8599677681922912
1070
    74
1070
     0
1000
MTEXTEND
  0
ATTDEF
  5
2B5
330
2B1
100
AcDbEntity
  8
0
100
AcDbText
 10
133.250765659573
 20
236.5612408625279
 30
0.0
 40
3.499999940395355
  1
 
 11
133.250765659573
 21
240.0612408029233
 31
0.0
100
AcDbAttributeDefinition
  3
ČÍSLO SOUČÁSTI
  2
ČÍSLO_SOUČÁSTI
 70
     0
 74
     3
  0
ENDBLK
  5
2B3
330
2B1
100
AcDbEntity
  8
0
100
AcDbBlockEnd
  0
BLOCK
  5
2B7
330
2B6
100
AcDbEntity
  8
0
100
AcDbBlockBegin
  2
POLOMĚR OHYBU 1_5
 70
     0
 10
54.53719337280102
 20
97.57686937792474
 30
0.0
  3
POLOMĚR OHYBU 1_5
  1

  0
MTEXT
  5
2B9
330
2B6
100
AcDbEntity
  8
Text
370
     5
100
AcDbMText
 10
30.39108951385327
 20
100.0265446564009
 30
0.0
 40
3.499999940395355
 41
0.0
 71
     1
 72
     1
  1
POLOMĚR OHYBU R=1.5
 73
     2
 44
0.8599677681922912
1001
ACAD
1000
MTEXTBEGIN
1070
    73
1070
     2
1070
    44
1040
0.8599677681922912
1070
    74
1070
     0
1000
MTEXTEND
  0
ENDBLK
  5
2B8
330
2B6
100
AcDbEntity
  8
0
100
AcDbBlockEnd
  0
BLOCK
  5
2BB
330
2BA
100
AcDbEntity
  8
0
100
AcDbBlockBegin
  2
ROZVINUTÝ TVAR
 70
     0
 10
106.3488848368052
 20
155.0499033930466
 30
0.0
  3
ROZVINUTÝ TVAR
  1

  0
MTEXT
  5
2BD
330
2BA
100
AcDbEntity
  8
Text
370
     5
100
AcDbMText
 10
79.08792330421249
 20
158.5520990343869
 30
0.0
 40
5.003799796104431
 41
0.0
 71
     1
 72
     1
  1
\fISOCPEUR|b0|i0;\W1.00;\H5.0038;\lROZVINUTÝ TVAR
 73
     2
 44
0.8599677681922912
1001
ACAD
1000
MTEXTBEGIN
1070
    73
1070
     2
1070
    44
1040
0.8599677681922912
1070
    74
1070
     0
1000
MTEXTEND
  0
ENDBLK
  5
2BC
330
2BA
100
AcDbEntity
  8
0
100
AcDbBlockEnd
  0
BLOCK
  5
2BF
330
2BE
100
AcDbEntity
  8
0
100
AcDbBlockBegin
  2
KOMAXIT
 70
     0
 10
40.73103781807439
 20
100.510344474824
 30
0.0
  3
KOMAXIT
  1

  0
MTEXT
  5
2C1
330
2BE
100
AcDbEntity
  8
Text
370
     5
100
AcDbMText
 10
31.28460939991491
 20
102.2603444418202
 30
0.0
 40
3.499999940395355
 41
0.0
 71
     1
 72
     1
  1
KOMAXIT
 73
     2
 44
0.8599677681922912
1001
ACAD
1000
MTEXTBEGIN
1070
    73
1070
     2
1070
    44
1040
0.8599677681922912
1070
    74
1070
     0
1000
MTEXTEND
  0
ENDBLK
  5
2C0
330
2BE
100
AcDbEntity
  8
0
100
AcDbBlockEnd
  0
BLOCK
  5
2C4
330
2C3
100
AcDbEntity
  8
0
100
AcDbBlockBegin
  2
Borders Default Border
 70
     0
 10
0.0
 20
0.0
 30
0.0
  3
Borders Default Border
  1

  0
POLYLINE
  5
2C6
330
2C3
100
AcDbEntity
  8
2dTransBorder
  6
Continuous
 62
   179
 48
0.0
370
    40
100
AcDb2dPolyline
 66
     1
 10
0.0
 20
0.0
 30
0.0
  0
VERTEX
  5
2C7
330
2C6
100
AcDbEntity
  8
2dTransBorder
  6
Continuous
 62
   179
 48
0.0
370
    40
100
AcDbVertex
100
AcDb2dVertex
 10
10.0
 20
10.0
 30
0.0
  0
VERTEX
  5
2C8
330
2C6
100
AcDbEntity
  8
2dTransBorder
  6
Continuous
 62
   179
 48
0.0
370
    40
100
AcDbVertex
100
AcDb2dVertex
 10
10.0
 20
287.0000076293946
 30
0.0
  0
VERTEX
  5
2CA
330
2C6
100
AcDbEntity
  8
2dTransBorder
  6
Continuous
 62
   179
 48
0.0
370
    40
100
AcDbVertex
100
AcDb2dVertex
 10
200.0
 20
287.0000076293946
 30
0.0
  0
VERTEX
  5
2CB
330
2C6
100
AcDbEntity
  8
2dTransBorder
  6
Continuous
 62
   179
 48
0.0
370
    40
100
AcDbVertex
100
AcDb2dVertex
 10
200.0
 20
10.0
 30
0.0
  0
VERTEX
  5
2CC
330
2C6
100
AcDbEntity
  8
2dTransBorder
  6
Continuous
 62
   179
 48
0.0
370
    40
100
AcDbVertex
100
AcDb2dVertex
 10
10.0
 20
10.0
 30
0.0
  0
SEQEND
  5
2C9
330
2C6
100
AcDbEntity
  8
2dTransBorder
  6
Continuous
 62
   179
 48
0.0
370
    40
  0
POLYLINE
  5
2CD
330
2C3
100
AcDbEntity
  8
2dTransBorder
  6
Continuous
 62
   179
 48
0.0
370
    40
100
AcDb2dPolyline
 66
     1
 10
0.0
 20
0.0
 30
0.0
  0
VERTEX
  5
2CE
330
2CD
100
AcDbEntity
  8
2dTransBorder
  6
Continuous
 62
   179
 48
0.0
370
    40
100
AcDbVertex
100
AcDb2dVertex
 10
105.0
 20
0.0
 30
0.0
  0
VERTEX
  5
2CF
330
2CD
100
AcDbEntity
  8
2dTransBorder
  6
Continuous
 62
   179
 48
0.0
370
    40
100
AcDbVertex
100
AcDb2dVertex
 10
105.0
 20
10.0
 30
0.0
  0
VERTEX
  5
2D1
330
2CD
100
AcDbEntity
  8
2dTransBorder
  6
Continuous
 62
   179
 48
0.0
370
    40
100
AcDbVertex
100
AcDb2dVertex
 10
102.1132469177246
 20
5.0
 30
0.0
  0
VERTEX
  5
2D2
330
2CD
100
AcDbEntity
  8
2dTransBorder
  6
Continuous
 62
   179
 48
0.0
370
    40
100
AcDbVertex
100
AcDb2dVertex
 10
107.8867530822754
 20
5.0
 30
0.0
  0
VERTEX
  5
2D3
330
2CD
100
AcDbEntity
  8
2dTransBorder
  6
Continuous
 62
   179
 48
0.0
370
    40
100
AcDbVertex
100
AcDb2dVertex
 10
105.0
 20
10.0
 30
0.0
  0
SEQEND
  5
2D0
330
2CD
100
AcDbEntity
  8
2dTransBorder
  6
Continuous
 62
   179
 48
0.0
370
    40
  0
POLYLINE
  5
2D4
330
2C3
100
AcDbEntity
  8
2dTransBorder
  6
Continuous
 62
   179
 48
0.0
370
    40
100
AcDb2dPolyline
 66
     1
 10
0.0
 20
0.0
 30
0.0
  0
VERTEX
  5
2D5
330
2D4
100
AcDbEntity
  8
2dTransBorder
  6
Continuous
 62
   179
 48
0.0
370
    40
100
AcDbVertex
100
AcDb2dVertex
 10
105.0
 20
297.0000076293946
 30
0.0
  0
VERTEX
  5
2D6
330
2D4
100
AcDbEntity
  8
2dTransBorder
  6
Continuous
 62
   179
 48
0.0
370
    40
100
AcDbVertex
100
AcDb2dVertex
 10
105.0
 20
287.0000076293946
 30
0.0
  0
VERTEX
  5
2D8
330
2D4
100
AcDbEntity
  8
2dTransBorder
  6
Continuous
 62
   179
 48
0.0
370
    40
100
AcDbVertex
100
AcDb2dVertex
 10
102.1132469177246
 20
292.0000076293945
 30
0.0
  0
VERTEX
  5
2D9
330
2D4
100
AcDbEntity
  8
2dTransBorder
  6
Continuous
 62
   179
 48
0.0
370
    40
100
AcDbVertex
100
AcDb2dVertex
 10
107.8867530822754
 20
292.0000076293945
 30
0.0
  0
VERTEX
  5
2DA
330
2D4
100
AcDbEntity
  8
2dTransBorder
  6
Continuous
 62
   179
 48
0.0
370
    40
100
AcDbVertex
100
AcDb2dVertex
 10
105.0
 20
287.0000076293946
 30
0.0
  0
SEQEND
  5
2D7
330
2D4
100
AcDbEntity
  8
2dTransBorder
  6
Continuous
 62
   179
 48
0.0
370
    40
  0
POLYLINE
  5
2DB
330
2C3
100
AcDbEntity
  8
2dTransBorder
  6
Continuous
 62
   179
 48
0.0
370
    40
100
AcDb2dPolyline
 66
     1
 10
0.0
 20
0.0
 30
0.0
  0
VERTEX
  5
2DC
330
2DB
100
AcDbEntity
  8
2dTransBorder
  6
Continuous
 62
   179
 48
0.0
370
    40
100
AcDbVertex
100
AcDb2dVertex
 10
0.0
 20
148.5000038146973
 30
0.0
  0
VERTEX
  5
2DD
330
2DB
100
AcDbEntity
  8
2dTransBorder
  6
Continuous
 62
   179
 48
0.0
370
    40
100
AcDbVertex
100
AcDb2dVertex
 10
10.0
 20
148.5000038146973
 30
0.0
  0
VERTEX
  5
2DF
330
2DB
100
AcDbEntity
  8
2dTransBorder
  6
Continuous
 62
   179
 48
0.0
370
    40
100
AcDbVertex
100
AcDb2dVertex
 10
5.0
 20
151.3867473602295
 30
0.0
  0
VERTEX
  5
2E0
330
2DB
100
AcDbEntity
  8
2dTransBorder
  6
Continuous
 62
   179
 48
0.0
370
    40
100
AcDbVertex
100
AcDb2dVertex
 10
5.0
 20
145.6132507324219
 30
0.0
  0
VERTEX
  5
2E1
330
2DB
100
AcDbEntity
  8
2dTransBorder
  6
Continuous
 62
   179
 48
0.0
370
    40
100
AcDbVertex
100
AcDb2dVertex
 10
10.0
 20
148.5000038146973
 30
0.0
  0
SEQEND
  5
2DE
330
2DB
100
AcDbEntity
  8
2dTransBorder
  6
Continuous
 62
   179
 48
0.0
370
    40
  0
POLYLINE
  5
2E2
330
2C3
100
AcDbEntity
  8
2dTransBorder
  6
Continuous
 62
   179
 48
0.0
370
    40
100
AcDb2dPolyline
 66
     1
 10
0.0
 20
0.0
 30
0.0
  0
VERTEX
  5
2E3
330
2E2
100
AcDbEntity
  8
2dTransBorder
  6
Continuous
 62
   179
 48
0.0
370
    40
100
AcDbVertex
100
AcDb2dVertex
 10
210.0
 20
148.5000038146973
 30
0.0
  0
VERTEX
  5
2E4
330
2E2
100
AcDbEntity
  8
2dTransBorder
  6
Continuous
 62
   179
 48
0.0
370
    40
100
AcDbVertex
100
AcDb2dVertex
 10
200.0
 20
148.5000038146973
 30
0.0
  0
VERTEX
  5
2E6
330
2E2
100
AcDbEntity
  8
2dTransBorder
  6
Continuous
 62
   179
 48
0.0
370
    40
100
AcDbVertex
100
AcDb2dVertex
 10
205.0
 20
151.3867473602295
 30
0.0
  0
VERTEX
  5
2E7
330
2E2
100
AcDbEntity
  8
2dTransBorder
  6
Continuous
 62
   179
 48
0.0
370
    40
100
AcDbVertex
100
AcDb2dVertex
 10
205.0
 20
145.6132507324219
 30
0.0
  0
VERTEX
  5
2E8
330
2E2
100
AcDbEntity
  8
2dTransBorder
  6
Continuous
 62
   179
 48
0.0
370
    40
100
AcDbVertex
100
AcDb2dVertex
 10
200.0
 20
148.5000038146973
 30
0.0
  0
SEQEND
  5
2E5
330
2E2
100
AcDbEntity
  8
2dTransBorder
  6
Continuous
 62
   179
 48
0.0
370
    40
  0
ENDBLK
  5
2C5
330
2C3
100
AcDbEntity
  8
0
100
AcDbBlockEnd
  0
BLOCK
  5
2EC
330
2EB
100
AcDbEntity
  8
0
100
AcDbBlockBegin
  2
Title Blocks STA
 70
     2
 10
-85.0
 20
37.5
 30
0.0
  3
Title Blocks STA
  1

  0
LINE
  5
2EE
330
2EB
100
AcDbEntity
  8
2dTransTitleBlock
  6
Continuous
 62
   178
 48
0.0
370
    25
100
AcDbLine
 10
-60.0
 20
70.0
 30
0.0
 11
-60.0
 21
25.0
 31
0.0
  0
LINE
  5
2EF
330
2EB
100
AcDbEntity
  8
2dTransTitleBlock
  6
Continuous
 62
   178
 48
0.0
370
    25
100
AcDbLine
 10
-170.0
 20
70.0
 30
0.0
 11
0.0
 21
70.0
 31
0.0
  0
LINE
  5
2F0
330
2EB
100
AcDbEntity
  8
2dTransTitleBlock
  6
Continuous
 48
0.0
370
    50
100
AcDbLine
 10
0.0
 20
70.0
 30
0.0
 11
0.0
 21
0.0
 31
0.0
  0
LINE
  5
2F1
330
2EB
100
AcDbEntity
  8
2dTransTitleBlock
  6
Continuous
 48
0.0
370
    50
100
AcDbLine
 10
0.0
 20
0.0
 30
0.0
 11
-170.0
 21
0.0
 31
0.0
  0
LINE
  5
2F2
330
2EB
100
AcDbEntity
  8
2dTransTitleBlock
  6
Continuous
 48
0.0
370
    50
100
AcDbLine
 10
-170.0
 20
0.0
 30
0.0
 11
-170.0
 21
70.0
 31
0.0
  0
LINE
  5
2F3
330
2EB
100
AcDbEntity
  8
2dTransTitleBlock
  6
Continuous
 62
   178
 48
0.0
370
    25
100
AcDbLine
 10
-114.0
 20
17.5
 30
0.0
 11
-114.0
 21
70.0
 31
0.0
  0
LINE
  5
2F4
330
2EB
100
AcDbEntity
  8
2dTransTitleBlock
  6
Continuous
 62
   178
 48
0.0
370
    25
100
AcDbLine
 10
-170.0
 20
65.0
 30
0.0
 11
-114.0
 21
65.0
 31
0.0
  0
LINE
  5
2F5
330
2EB
100
AcDbEntity
  8
2dTransTitleBlock
  6
Continuous
 62
   178
 48
0.0
370
    25
100
AcDbLine
 10
0.0
 20
60.0
 30
0.0
 11
-170.0
 21
60.0
 31
0.0
  0
LINE
  5
2F6
330
2EB
100
AcDbEntity
  8
2dTransTitleBlock
  6
Continuous
 62
   178
 48
0.0
370
    25
100
AcDbLine
 10
-170.0
 20
55.0
 30
0.0
 11
-114.0
 21
55.0
 31
0.0
  0
LINE
  5
2F7
330
2EB
100
AcDbEntity
  8
2dTransTitleBlock
  6
Continuous
 62
   178
 48
0.0
370
    25
100
AcDbLine
 10
-114.0
 20
50.0
 30
0.0
 11
-170.0
 21
50.0
 31
0.0
  0
LINE
  5
2F8
330
2EB
100
AcDbEntity
  8
2dTransTitleBlock
  6
Continuous
 62
   178
 48
0.0
370
    25
100
AcDbLine
 10
-170.0
 20
45.0
 30
0.0
 11
-60.0
 21
45.0
 31
0.0
  0
LINE
  5
2F9
330
2EB
100
AcDbEntity
  8
2dTransTitleBlock
  6
Continuous
 62
   178
 48
0.0
370
    25
100
AcDbLine
 10
-153.0
 20
70.0
 30
0.0
 11
-153.0
 21
40.0
 31
0.0
  0
LINE
  5
2FA
330
2EB
100
AcDbEntity
  8
2dTransTitleBlock
  6
Continuous
 62
   178
 48
0.0
370
    25
100
AcDbLine
 10
-138.0
 20
40.0
 30
0.0
 11
-138.0
 21
70.0
 31
0.0
  0
LINE
  5
2FB
330
2EB
100
AcDbEntity
  8
2dTransTitleBlock
  6
Continuous
 62
   178
 48
0.0
370
    25
100
AcDbLine
 10
-170.0
 20
40.0
 30
0.0
 11
-60.0
 21
40.0
 31
0.0
  0
LINE
  5
2FC
330
2EB
100
AcDbEntity
  8
2dTransTitleBlock
  6
Continuous
 62
   178
 48
0.0
370
    25
100
AcDbLine
 10
-170.0
 20
30.0
 30
0.0
 11
-60.0
 21
30.0
 31
0.0
  0
LINE
  5
2FD
330
2EB
100
AcDbEntity
  8
2dTransTitleBlock
  6
Continuous
 62
   178
 48
0.0
370
    25
100
AcDbLine
 10
-114.0
 20
65.0
 30
0.0
 11
-60.0
 21
65.0
 31
0.0
  0
LINE
  5
2FE
330
2EB
100
AcDbEntity
  8
2dTransTitleBlock
  6
Continuous
 62
   178
 48
0.0
370
    25
100
AcDbLine
 10
-60.0
 20
65.0
 30
0.0
 11
0.0
 21
65.0
 31
0.0
  0
LINE
  5
2FF
330
2EB
100
AcDbEntity
  8
2dTransTitleBlock
  6
Continuous
 62
   178
 48
0.0
370
    25
100
AcDbLine
 10
-60.0
 20
50.0
 30
0.0
 11
0.0
 21
50.0
 31
0.0
  0
LINE
  5
300
330
2EB
100
AcDbEntity
  8
2dTransTitleBlock
  6
Continuous
 62
   178
 48
0.0
370
    25
100
AcDbLine
 10
-60.0
 20
40.0
 30
0.0
 11
0.0
 21
40.0
 31
0.0
  0
LINE
  5
301
330
2EB
100
AcDbEntity
  8
2dTransTitleBlock
  6
Continuous
 62
   178
 48
0.0
370
    25
100
AcDbLine
 10
-60.0
 20
45.0
 30
0.0
 11
0.0
 21
45.0
 31
0.0
  0
LINE
  5
302
330
2EB
100
AcDbEntity
  8
2dTransTitleBlock
  6
Continuous
 62
   178
 48
0.0
370
    25
100
AcDbLine
 10
-60.0
 20
55.0
 30
0.0
 11
0.0
 21
55.0
 31
0.0
  0
LINE
  5
303
330
2EB
100
AcDbEntity
  8
2dTransTitleBlock
  6
Continuous
 62
   178
 48
0.0
370
    25
100
AcDbLine
 10
-60.0
 20
30.0
 30
0.0
 11
0.0
 21
30.0
 31
0.0
  0
LINE
  5
304
330
2EB
100
AcDbEntity
  8
2dTransTitleBlock
  6
Continuous
 62
   178
 48
0.0
370
    25
100
AcDbLine
 10
-159.5
 20
35.0
 30
0.0
 11
-114.0
 21
35.0
 31
0.0
  0
LINE
  5
305
330
2EB
100
AcDbEntity
  8
2dTransTitleBlock
  6
Continuous
 62
   178
 48
0.0
370
    25
100
AcDbLine
 10
0.0
 20
25.0
 30
0.0
 11
-114.0
 21
25.0
 31
0.0
  0
LINE
  5
306
330
2EB
100
AcDbEntity
  8
2dTransTitleBlock
  6
Continuous
 62
   178
 48
0.0
370
    25
100
AcDbLine
 10
-86.0
 20
70.0
 30
0.0
 11
-86.0
 21
65.0
 31
0.0
  0
LINE
  5
307
330
2EB
100
AcDbEntity
  8
2dTransTitleBlock
  6
Continuous
 62
   178
 48
0.0
370
    25
100
AcDbLine
 10
-74.0
 20
40.0
 30
0.0
 11
-74.0
 21
30.0
 31
0.0
  0
LINE
  5
308
330
2EB
100
AcDbEntity
  8
2dTransTitleBlock
  6
Continuous
 62
   178
 48
0.0
370
    25
100
AcDbLine
 10
-43.5
 20
30.0
 30
0.0
 11
-43.5
 21
70.0
 31
0.0
  0
LINE
  5
309
330
2EB
100
AcDbEntity
  8
2dTransTitleBlock
  6
Continuous
 62
   178
 48
0.0
370
    25
100
AcDbLine
 10
-30.0
 20
70.0
 30
0.0
 11
-30.0
 21
30.0
 31
0.0
  0
LINE
  5
30A
330
2EB
100
AcDbEntity
  8
2dTransTitleBlock
  6
Continuous
 62
   178
 48
0.0
370
    25
100
AcDbLine
 10
-18.0
 20
30.0
 30
0.0
 11
-18.0
 21
70.0
 31
0.0
  0
LINE
  5
30B
330
2EB
100
AcDbEntity
  8
2dTransTitleBlock
  6
Continuous
 62
   178
 48
0.0
370
    25
100
AcDbLine
 10
-159.5
 20
40.0
 30
0.0
 11
-159.5
 21
30.0
 31
0.0
  0
LINE
  5
30C
330
2EB
100
AcDbEntity
  8
2dTransTitleBlock
  6
Continuous
 62
   178
 48
0.0
370
    25
100
AcDbLine
 10
-162.0
 20
75.0
 30
0.0
 11
-162.0
 21
70.0
 31
0.0
  0
LINE
  5
30D
330
2EB
100
AcDbEntity
  8
2dTransTitleBlock
  6
Continuous
 62
   178
 48
0.0
370
    25
100
AcDbLine
 10
-102.0
 20
75.0
 30
0.0
 11
-102.0
 21
70.0
 31
0.0
  0
LINE
  5
30E
330
2EB
100
AcDbEntity
  8
2dTransTitleBlock
  6
Continuous
 62
   178
 48
0.0
370
    25
100
AcDbLine
 10
-77.0
 20
70.0
 30
0.0
 11
-77.0
 21
75.0
 31
0.0
  0
LINE
  5
30F
330
2EB
100
AcDbEntity
  8
2dTransTitleBlock
  6
Continuous
 48
0.0
370
    50
100
AcDbLine
 10
-170.0
 20
70.0
 30
0.0
 11
-170.0
 21
75.0
 31
0.0
  0
LINE
  5
310
330
2EB
100
AcDbEntity
  8
2dTransTitleBlock
  6
Continuous
 48
0.0
370
    50
100
AcDbLine
 10
0.0
 20
75.0
 30
0.0
 11
0.0
 21
70.0
 31
0.0
  0
LINE
  5
311
330
2EB
100
AcDbEntity
  8
2dTransTitleBlock
  6
Continuous
 48
0.0
370
    50
100
AcDbLine
 10
-170.0
 20
75.0
 30
0.0
 11
0.0
 21
75.0
 31
0.0
  0
LINE
  5
312
330
2EB
100
AcDbEntity
  8
2dTransTitleBlock
  6
Continuous
 62
   178
 48
0.0
370
    25
100
AcDbLine
 10
-86.0
 20
25.0
 30
0.0
 11
-86.00000000000001
 21
17.5
 31
0.0
  0
LINE
  5
313
330
2EB
100
AcDbEntity
  8
2dTransTitleBlock
  6
Continuous
 62
   178
 48
0.0
370
    25
100
AcDbLine
 10
-130.5
 20
30.0
 30
0.0
 11
-130.5
 21
17.5
 31
0.0
  0
LINE
  5
314
330
2EB
100
AcDbEntity
  8
2dTransTitleBlock
  6
Continuous
 62
   178
 48
0.0
370
    25
100
AcDbLine
 10
-123.5
 20
20.5
 30
0.0
 11
-123.5
 21
26.5
 31
0.0
  0
LINE
  5
315
330
2EB
100
AcDbEntity
  8
2dTransTitleBlock
  6
Continuous
 62
   178
 48
0.0
370
    25
100
AcDbLine
 10
-123.5
 20
26.5
 30
0.0
 11
-128.5
 21
24.5
 31
0.0
  0
LINE
  5
316
330
2EB
100
AcDbEntity
  8
2dTransTitleBlock
  6
Continuous
 62
   178
 48
0.0
370
    25
100
AcDbLine
 10
-128.5
 20
24.5
 30
0.0
 11
-128.5
 21
22.5
 31
0.0
  0
LINE
  5
317
330
2EB
100
AcDbEntity
  8
2dTransTitleBlock
  6
Continuous
 62
   178
 48
0.0
370
    25
100
AcDbLine
 10
-128.5
 20
22.5
 30
0.0
 11
-123.5
 21
20.5
 31
0.0
  0
LINE
  5
318
330
2EB
100
AcDbEntity
  8
2dTransTitleBlock
  6
Continuous
 62
   178
 48
0.0
370
    25
100
AcDbLine
 10
-129.5
 20
23.5
 30
0.0
 11
-122.5
 21
23.5
 31
0.0
  0
LINE
  5
319
330
2EB
100
AcDbEntity
  8
2dTransTitleBlock
  6
Continuous
 62
   178
 48
0.0
370
    25
100
AcDbLine
 10
-122.0
 20
23.5
 30
0.0
 11
-115.0
 21
23.5
 31
0.0
  0
CIRCLE
  5
31A
330
2EB
100
AcDbEntity
  8
2dTransTitleBlock
  6
Continuous
 62
   178
 48
0.0
370
    25
100
AcDbCircle
 10
-118.5
 20
23.5
 30
0.0
 40
3.0
  0
CIRCLE
  5
31B
330
2EB
100
AcDbEntity
  8
2dTransTitleBlock
  6
Continuous
 62
   178
 48
0.0
370
    25
100
AcDbCircle
 10
-118.5
 20
23.5
 30
0.0
 40
1.581138830084189
  0
LINE
  5
31C
330
2EB
100
AcDbEntity
  8
2dTransTitleBlock
  6
Continuous
 62
   178
 48
0.0
370
    25
100
AcDbLine
 10
-118.5
 20
27.0
 30
0.0
 11
-118.5
 21
20.0
 31
0.0
  0
LINE
  5
31D
330
2EB
100
AcDbEntity
  8
2dTransTitleBlock
  6
Continuous
 62
   178
 48
0.0
370
    25
100
AcDbLine
 10
-60.0
 20
35.0
 30
0.0
 11
0.0
 21
35.0
 31
0.0
  0
LINE
  5
31E
330
2EB
100
AcDbEntity
  8
2dTransTitleBlock
  6
Continuous
 62
   178
 48
0.0
370
    25
100
AcDbLine
 10
-138.0
 20
8.5
 30
0.0
 11
0.0
 21
8.5
 31
0.0
  0
LINE
  5
31F
330
2EB
100
AcDbEntity
  8
2dTransTitleBlock
  6
Continuous
 62
   178
 48
0.0
370
    25
100
AcDbLine
 10
-170.0
 20
17.5
 30
0.0
 11
0.0
 21
17.5
 31
0.0
  0
LINE
  5
320
330
2EB
100
AcDbEntity
  8
2dTransTitleBlock
  6
Continuous
 62
   178
 48
0.0
370
    25
100
AcDbLine
 10
-138.0
 20
17.5
 30
0.0
 11
-138.0
 21
0.0
 31
0.0
  0
LINE
  5
321
330
2EB
100
AcDbEntity
  8
2dTransTitleBlock
  6
Continuous
 62
   178
 48
0.0
370
    25
100
AcDbLine
 10
-30.0
 20
0.0
 30
0.0
 11
-30.0
 21
8.5
 31
0.0
  0
LINE
  5
322
330
2EB
100
AcDbEntity
  8
2dTransTitleBlock
  6
Continuous
 62
   178
 48
0.0
370
    25
100
AcDbLine
 10
-15.0
 20
0.0
 30
0.0
 11
-15.0
 21
8.5
 31
0.0
  0
LINE
  5
323
330
2EB
100
AcDbEntity
  8
2dTransTitleBlock
  6
Continuous
 48
0.0
370
    25
100
AcDbLine
 10
-9.999999999999991
 20
75.0
 30
0.0
 11
-9.999999999999991
 21
70.0
 31
0.0
  0
LINE
  5
324
330
2EB
100
AcDbEntity
  8
2dTransTitleBlock
 48
0.0
370
    50
100
AcDbLine
 10
-49.99999999999999
 20
75.0
 30
0.0
 11
-49.99999999999999
 21
70.0
 31
0.0
  0
MTEXT
  5
325
330
2EB
100
AcDbEntity
  8
2dTransTitleBlock
 62
   168
370
     5
100
AcDbMText
 10
-169.0
 20
66.50781362572087
 30
0.0
 40
2.000000029802322
 41
0.0
 71
     7
 72
     1
  1
\fISOCPEUR|b0|i0;\W1.00;\lKONSTR.
  7
TextStyle59
 73
     2
 44
0.859967827796936
1001
ACAD
1000
MTEXTBEGIN
1070
    73
1070
     2
1070
    44
1040
0.859967827796936
1070
    74
1070
     0
1000
MTEXTEND
  0
MTEXT
  5
326
330
2EB
100
AcDbEntity
  8
2dTransTitleBlock
 62
   168
370
     5
100
AcDbMText
 10
-169.0
 20
61.40625070650111
 30
0.0
 40
2.000000029802322
 41
0.0
 71
     7
 72
     1
  1
\fISOCPEUR|b0|i0;\W1.00;\lKONTROL.
  7
TextStyle59
 73
     2
 44
0.859967827796936
1001
ACAD
1000
MTEXTBEGIN
1070
    73
1070
     2
1070
    44
1040
0.859967827796936
1070
    74
1070
     0
1000
MTEXTEND
  0
MTEXT
  5
327
330
2EB
100
AcDbEntity
  8
2dTransTitleBlock
 62
   168
370
     5
100
AcDbMText
 10
-169.0
 20
56.5078133831264
 30
0.0
 40
2.000000029802322
 41
0.0
 71
     7
 72
     1
  1
\fISOCPEUR|b0|i0;\W1.00;\lVEDOUCÍ
  7
TextStyle59
 73
     2
 44
0.859967827796936
1001
ACAD
1000
MTEXTBEGIN
1070
    73
1070
     2
1070
    44
1040
0.859967827796936
1070
    74
1070
     0
1000
MTEXTEND
  0
MTEXT
  5
328
330
2EB
100
AcDbEntity
  8
2dTransTitleBlock
 62
   168
370
     5
100
AcDbMText
 10
-169.0
 20
51.60937630234622
 30
0.0
 40
2.000000029802322
 41
0.0
 71
     7
 72
     1
  1
\fISOCPEUR|b0|i0;\W1.00;\lREF.NORM.
  7
TextStyle59
 73
     2
 44
0.859967827796936
1001
ACAD
1000
MTEXTBEGIN
1070
    73
1070
     2
1070
    44
1040
0.859967827796936
1070
    74
1070
     0
1000
MTEXTEND
  0
MTEXT
  5
329
330
2EB
100
AcDbEntity
  8
2dTransTitleBlock
 62
   168
370
     5
100
AcDbMText
 10
-169.0
 20
46.5078133831264
 30
0.0
 40
2.000000029802322
 41
0.0
 71
     7
 72
     1
  1
\fISOCPEUR|b0|i0;\W1.00;\lREF.MATER.
  7
TextStyle59
 73
     2
 44
0.859967827796936
1001
ACAD
1000
MTEXTBEGIN
1070
    73
1070
     2
1070
    44
1040
0.859967827796936
1070
    74
1070
     0
1000
MTEXTEND
  0
MTEXT
  5
32A
330
2EB
100
AcDbEntity
  8
2dTransTitleBlock
 62
   168
370
     5
100
AcDbMText
 10
-169.0
 20
41.42789818703294
 30
0.0
 40
2.000000029802322
 41
0.0
 71
     7
 72
     1
  1
\fISOCPEUR|b0|i0;\W1.00;\lCAD
  7
TextStyle59
 73
     2
 44
0.859967827796936
1001
ACAD
1000
MTEXTBEGIN
1070
    73
1070
     2
1070
    44
1040
0.859967827796936
1070
    74
1070
     0
1000
MTEXTEND
  0
MTEXT
  5
32B
330
2EB
100
AcDbEntity
  8
2dTransTitleBlock
 62
   168
370
     5
100
AcDbMText
 10
-113.0
 20
66.52061212597408
 30
0.0
 40
2.000000029802322
 41
0.0
 71
     7
 72
     1
  1
\fISOCPEUR|b0|i0;\W1.00;\lČISTÁ HMOTN.
  7
TextStyle59
 73
     2
 44
0.859967827796936
1001
ACAD
1000
MTEXTBEGIN
1070
    73
1070
     2
1070
    44
1040
0.859967827796936
1070
    74
1070
     0
1000
MTEXTEND
  0
MTEXT
  5
32C
330
2EB
100
AcDbEntity
  8
2dTransTitleBlock
 62
   168
370
     5
100
AcDbMText
 10
-85.0
 20
66.51596019194716
 30
0.0
 40
2.000000029802322
 41
0.0
 71
     7
 72
     1
  1
\fISOCPEUR|b0|i0;\W1.00;\lTŘÍDA ODP.
  7
TextStyle59
 73
     2
 44
0.859967827796936
1001
ACAD
1000
MTEXTBEGIN
1070
    73
1070
     2
1070
    44
1040
0.859967827796936
1070
    74
1070
     0
1000
MTEXTEND
  0
MTEXT
  5
32D
330
2EB
100
AcDbEntity
  8
2dTransTitleBlock
 62
   168
370
     5
100
AcDbMText
 10
-113.0
 20
21.0259554199192
 30
0.0
 40
2.000000029802322
 41
0.0
 71
     7
 72
     1
  1
\fISOCPEUR|b0|i0;\W1.00;\lMĚŘÍTKO
  7
TextStyle59
 73
     2
 44
0.859967827796936
1001
ACAD
1000
MTEXTBEGIN
1070
    73
1070
     2
1070
    44
1040
0.859967827796936
1070
    74
1070
     0
1000
MTEXTEND
  0
MTEXT
  5
32E
330
2EB
100
AcDbEntity
  8
2dTransTitleBlock
 62
   168
370
     5
100
AcDbMText
 10
-161.05
 20
25.0
 30
0.0
 40
3.000000119209289
 41
0.0
 71
     7
 72
     1
  1
\fISOCPEUR|b0|i0;\W1.00;\lISO 2768-mH
  7
TextStyle61
 73
     2
 44
0.859967827796936
1001
ACAD
1000
MTEXTBEGIN
1070
    73
1070
     2
1070
    44
1040
0.859967827796936
1070
    74
1070
     0
1000
MTEXTEND
  0
MTEXT
  5
32F
330
2EB
100
AcDbEntity
  8
2dTransTitleBlock
 62
   168
370
     5
100
AcDbMText
 10
-59.0
 20
26.5
 30
0.0
 40
2.000000029802322
 41
0.0
 71
     7
 72
     1
  1
\fISOCPEUR|b0|i0;\W1.00;\lPODOBNÉ
  7
TextStyle59
 73
     2
 44
0.859967827796936
1001
ACAD
1000
MTEXTBEGIN
1070
    73
1070
     2
1070
    44
1040
0.859967827796936
1070
    74
1070
     0
1000
MTEXTEND
  0
MTEXT
  5
330
330
2EB
100
AcDbEntity
  8
2dTransTitleBlock
 62
   168
370
     5
100
AcDbMText
 10
-113.0
 20
56.00000000000001
 30
0.0
 40
2.000000029802322
 41
0.0
 71
     7
 72
     1
  1
\fISOCPEUR|b0|i0;\W1.00;\lMATERIÁL
  7
TextStyle59
 73
     2
 44
0.859967827796936
1001
ACAD
1000
MTEXTBEGIN
1070
    73
1070
     2
1070
    44
1040
0.859967827796936
1070
    74
1070
     0
1000
MTEXTEND
  0
MTEXT
  5
331
330
2EB
100
AcDbEntity
  8
2dTransTitleBlock
 62
   168
370
     5
100
AcDbMText
 10
-105.6634654050352
 20
41.39314308255393
 30
0.0
 40
2.000000029802322
 41
0.0
 71
     7
 72
     1
  1
\fISOCPEUR|b0|i0;\W1.00;\lHODNOTY NA HOTOVÉ SOUČÁSTI
  7
TextStyle59
 73
     2
 44
0.859967827796936
1001
ACAD
1000
MTEXTBEGIN
1070
    73
1070
     2
1070
    44
1040
0.859967827796936
1070
    74
1070
     0
1000
MTEXTEND
  0
MTEXT
  5
332
330
2EB
100
AcDbEntity
  8
2dTransTitleBlock
 62
   168
370
     5
100
AcDbMText
 10
-112.3143924971245
 20
36.0
 30
0.0
 40
2.006599903106689
 41
0.0
 71
     7
 72
     1
  1
\fISOCPEUR|b0|i0;\W0.90;\lPOVRCHOVÁ TVRDOST/PEVNOST
  7
Text Style66
 73
     2
 44
0.859967827796936
1001
ACAD
1000
MTEXTBEGIN
1070
    73
1070
     2
1070
    44
1040
0.859967827796936
1070
    74
1070
     0
1000
MTEXTEND
  0
MTEXT
  5
333
330
2EB
100
AcDbEntity
  8
2dTransTitleBlock
 62
   168
370
     5
100
AcDbMText
 10
-73.0
 20
36.0
 30
0.0
 40
2.006599903106689
 41
0.0
 71
     7
 72
     1
  1
\fISOCPEUR|b0|i0;\W0.90;\lHL.VRSTVY
  7
Text Style66
 73
     2
 44
0.859967827796936
1001
ACAD
1000
MTEXTBEGIN
1070
    73
1070
     2
1070
    44
1040
0.859967827796936
1070
    74
1070
     0
1000
MTEXTEND
  0
MTEXT
  5
334
330
2EB
100
AcDbEntity
  8
2dTransTitleBlock
 62
   168
370
     5
100
AcDbMText
 10
-85.0
 20
21.0
 30
0.0
 40
2.000000029802322
 41
0.0
 71
     7
 72
     1
  1
\fISOCPEUR|b0|i0;\W1.00;\lSOUČÁST
  7
TextStyle59
 73
     2
 44
0.859967827796936
1001
ACAD
1000
MTEXTBEGIN
1070
    73
1070
     2
1070
    44
1040
0.859967827796936
1070
    74
1070
     0
1000
MTEXTEND
  0
MTEXT
  5
335
330
2EB
100
AcDbEntity
  8
2dTransTitleBlock
 62
   168
370
     5
100
AcDbMText
 10
-55.0
 20
31.45977748687869
 30
0.0
 40
2.000000029802322
 41
0.0
 71
     7
 72
     1
  1
\fISOCPEUR|b0|i0;\W1.00;\lČ.REKL.
  7
TextStyle59
 73
     2
 44
0.859967827796936
1001
ACAD
1000
MTEXTBEGIN
1070
    73
1070
     2
1070
    44
1040
0.859967827796936
1070
    74
1070
     0
1000
MTEXTEND
  0
MTEXT
  5
336
330
2EB
100
AcDbEntity
  8
2dTransTitleBlock
 62
   168
370
     5
100
AcDbMText
 10
-37.6592635839798
 20
31.55173293573552
 30
0.0
 40
2.000000029802322
 41
0.0
 71
     7
 72
     1
  1
\fISOCPEUR|b0|i0;\W1.00;\lZN
  7
TextStyle59
 73
     2
 44
0.859967827796936
1001
ACAD
1000
MTEXTBEGIN
1070
    73
1070
     2
1070
    44
1040
0.859967827796936
1070
    74
1070
     0
1000
MTEXTEND
  0
MTEXT
  5
337
330
2EB
100
AcDbEntity
  8
2dTransTitleBlock
 62
   168
370
     5
100
AcDbMText
 10
-28.63185279595837
 20
31.45977748687869
 30
0.0
 40
2.000000029802322
 41
0.0
 71
     7
 72
     1
  1
\fISOCPEUR|b0|i0;\W1.00;\lD
  7
TextStyle59
 73
     2
 44
0.859967827796936
1001
ACAD
1000
MTEXTBEGIN
1070
    73
1070
     2
1070
    44
1040
0.859967827796936
1070
    74
1070
     0
1000
MTEXTEND
  0
MTEXT
  5
338
330
2EB
100
AcDbEntity
  8
2dTransTitleBlock
 62
   168
370
     5
100
AcDbMText
 10
-24.44777879812552
 20
31.55173269314102
 30
0.0
 40
2.000000029802322
 41
0.0
 71
     7
 72
     1
  1
\fISOCPEUR|b0|i0;\W1.00;\lM
  7
TextStyle59
 73
     2
 44
0.859967827796936
1001
ACAD
1000
MTEXTBEGIN
1070
    73
1070
     2
1070
    44
1040
0.859967827796936
1070
    74
1070
     0
1000
MTEXTEND
  0
MTEXT
  5
339
330
2EB
100
AcDbEntity
  8
2dTransTitleBlock
 62
   168
370
     5
100
AcDbMText
 10
-20.44777879812546
 20
31.55173269314102
 30
0.0
 40
2.000000029802322
 41
0.0
 71
     7
 72
     1
  1
\fISOCPEUR|b0|i0;\W1.00;\lR
  7
TextStyle59
 73
     2
 44
0.859967827796936
1001
ACAD
1000
MTEXTBEGIN
1070
    73
1070
     2
1070
    44
1040
0.859967827796936
1070
    74
1070
     0
1000
MTEXTEND
  0
MTEXT
  5
33A
330
2EB
100
AcDbEntity
  8
2dTransTitleBlock
 62
   168
370
     5
100
AcDbMText
 10
-13.19847933873387
 20
31.55173293573554
 30
0.0
 40
2.000000029802322
 41
0.0
 71
     7
 72
     1
  1
\fISOCPEUR|b0|i0;\W1.00;\lPODPIS
  7
TextStyle59
 73
     2
 44
0.859967827796936
1001
ACAD
1000
MTEXTBEGIN
1070
    73
1070
     2
1070
    44
1040
0.859967827796936
1070
    74
1070
     0
1000
MTEXTEND
  0
MTEXT
  5
33B
330
2EB
100
AcDbEntity
  8
2dTransTitleBlock
 62
   168
370
     5
100
AcDbMText
 10
-136.5
 20
14.0
 30
0.0
 40
2.000000029802322
 41
0.0
 71
     7
 72
     1
  1
\fISOCPEUR|b0|i0;\W1.00;\lNÁZEV STROJE
  7
TextStyle59
 73
     2
 44
0.859967827796936
1001
ACAD
1000
MTEXTBEGIN
1070
    73
1070
     2
1070
    44
1040
0.859967827796936
1070
    74
1070
     0
1000
MTEXTEND
  0
MTEXT
  5
33C
330
2EB
100
AcDbEntity
  8
2dTransTitleBlock
 62
   168
370
     5
100
AcDbMText
 10
-136.5
 20
1.5
 30
0.0
 40
2.000000029802322
 41
0.0
 71
     7
 72
     1
  1
\fISOCPEUR|b0|i0;\W1.00;\lČ.V.
  7
TextStyle59
 73
     2
 44
0.859967827796936
1001
ACAD
1000
MTEXTBEGIN
1070
    73
1070
     2
1070
    44
1040
0.859967827796936
1070
    74
1070
     0
1000
MTEXTEND
  0
MTEXT
  5
33D
330
2EB
100
AcDbEntity
  8
2dTransTitleBlock
 62
   168
370
     5
100
AcDbMText
 10
-29.05333333333333
 20
5.5
 30
0.0
 40
2.000000029802322
 41
0.0
 71
     7
 72
     1
  1
\fISOCPEUR|b0|i0;\W1.00;\lDÍLY
  7
TextStyle59
 73
     2
 44
0.859967827796936
1001
ACAD
1000
MTEXTBEGIN
1070
    73
1070
     2
1070
    44
1040
0.859967827796936
1070
    74
1070
     0
1000
MTEXTEND
  0
MTEXT
  5
33E
330
2EB
100
AcDbEntity
  8
2dTransTitleBlock
 62
   168
370
     5
100
AcDbMText
 10
-14.0
 20
5.5
 30
0.0
 40
2.000000029802322
 41
0.0
 71
     7
 72
     1
  1
\fISOCPEUR|b0|i0;\W1.00;\lDÍL
  7
TextStyle59
 73
     2
 44
0.859967827796936
1001
ACAD
1000
MTEXTBEGIN
1070
    73
1070
     2
1070
    44
1040
0.859967827796936
1070
    74
1070
     0
1000
MTEXTEND
  0
MTEXT
  5
33F
330
2EB
100
AcDbEntity
  8
2dTransTitleBlock
 62
   168
370
     5
100
AcDbMText
 10
-158.5
 20
36.3811487248112
 30
0.0
 40
2.000000029802322
 41
0.0
 71
     7
 72
     1
  1
\fISOCPEUR|b0|i0;\W1.00;\lDATUM VYDÁNÍ
  7
TextStyle59
 73
     2
 44
0.859967827796936
1001
ACAD
1000
MTEXTBEGIN
1070
    73
1070
     2
1070
    44
1040
0.859967827796936
1070
    74
1070
     0
1000
MTEXTEND
  0
MTEXT
  5
340
330
2EB
100
AcDbEntity
  8
2dTransTitleBlock
 62
   168
370
     5
100
AcDbMText
 10
-158.5
 20
31.38114872481123
 30
0.0
 40
2.000000029802322
 41
0.0
 71
     7
 72
     1
  1
\fISOCPEUR|b0|i0;\W1.00;\lPODPIS KONSTR.
  7
TextStyle59
 73
     2
 44
0.859967827796936
1001
ACAD
1000
MTEXTBEGIN
1070
    73
1070
     2
1070
    44
1040
0.859967827796936
1070
    74
1070
     0
1000
MTEXTEND
  0
MTEXT
  5
341
330
2EB
100
AcDbEntity
  8
2dTransTitleBlock
 62
   168
370
     5
100
AcDbMText
 10
-112.9789271162111
 20
62.75725389111141
 30
0.0
 40
1.500000059604644
 41
0.0
 71
     7
 72
     1
  1
\fISOCPEUR|b0|i0;\W1.00;\lPOLOTOVAR
  7
TextStyle63
 73
     2
 44
0.859967827796936
1001
ACAD
1000
MTEXTBEGIN
1070
    73
1070
     2
1070
    44
1040
0.859967827796936
1070
    74
1070
     0
1000
MTEXTEND
  0
MTEXT
  5
342
330
2EB
100
AcDbEntity
  8
2dTransTitleBlock
 62
   168
370
     5
100
AcDbMText
 10
-168.5
 20
35.5
 30
0.0
 40
2.000000029802322
 41
0.0
 71
     7
 72
     1
  1
\fISOCPEUR|b0|i0;\W1.00;\lDÍLEN.
  7
TextStyle59
 73
     2
 44
0.859967827796936
1001
ACAD
1000
MTEXTBEGIN
1070
    73
1070
     2
1070
    44
1040
0.859967827796936
1070
    74
1070
     0
1000
MTEXTEND
  0
MTEXT
  5
343
330
2EB
100
AcDbEntity
  8
2dTransTitleBlock
 62
   168
370
     5
100
AcDbMText
 10
-169.5891742689651
 20
31.66666666666663
 30
0.0
 40
2.000000029802322
 41
0.0
 71
     7
 72
     1
  1
\fISOCPEUR|b0|i0;\W1.00;\lVÝKRES
  7
TextStyle59
 73
     2
 44
0.859967827796936
1001
ACAD
1000
MTEXTBEGIN
1070
    73
1070
     2
1070
    44
1040
0.859967827796936
1070
    74
1070
     0
1000
MTEXTEND
  0
MTEXT
  5
344
330
2EB
100
AcDbEntity
  8
2dTransTitleBlock
 62
   168
370
     5
100
AcDbMText
 10
-164.65
 20
20.21312752685691
 30
0.0
 40
3.000000119209289
 41
0.0
 71
     7
 72
     1
  1
\fISOCPEUR|b0|i0;\W1.00;\lEN ISO 13920-BF
  7
TextStyle61
 73
     2
 44
0.859967827796936
1001
ACAD
1000
MTEXTBEGIN
1070
    73
1070
     2
1070
    44
1040
0.859967827796936
1070
    74
1070
     0
1000
MTEXTEND
  0
MTEXT
  5
345
330
2EB
100
AcDbEntity
  8
2dTransTitleBlock
 62
   168
370
     5
100
AcDbMText
 10
-112.9789271162111
 20
60.58014843848781
 30
0.0
 40
1.500000059604644
 41
0.0
 71
     7
 72
     1
  1
\fISOCPEUR|b0|i0;\W1.00;\lMODEL/VÝKOVEK
  7
TextStyle63
 73
     2
 44
0.859967827796936
1001
ACAD
1000
MTEXTBEGIN
1070
    73
1070
     2
1070
    44
1040
0.859967827796936
1070
    74
1070
     0
1000
MTEXTEND
  0
MTEXT
  5
346
330
2EB
100
AcDbEntity
  8
2dTransTitleBlock
 62
   168
370
     5
100
AcDbMText
 10
-167.8801795666323
 20
71.4195613913721
 30
0.0
 40
2.000000029802322
 41
0.0
 71
     7
 72
     1
  1
KS
  7
TextStyle59
 73
     2
 44
0.859967827796936
1001
ACAD
1000
MTEXTBEGIN
1070
    73
1070
     2
1070
    44
1040
0.859967827796936
1070
    74
1070
     0
1000
MTEXTEND
  0
MTEXT
  5
347
330
2EB
100
AcDbEntity
  8
2dTransTitleBlock
 62
   168
370
     5
100
AcDbMText
 10
-95.23639543716772
 20
71.42786503004898
 30
0.0
 40
2.000000029802322
 41
0.0
 71
     7
 72
     1
  1
MATERIÁL
  7
TextStyle59
 73
     2
 44
0.859967827796936
1001
ACAD
1000
MTEXTBEGIN
1070
    73
1070
     2
1070
    44
1040
0.859967827796936
1070
    74
1070
     0
1000
MTEXTEND
  0
MTEXT
  5
348
330
2EB
100
AcDbEntity
  8
2dTransTitleBlock
 62
   168
370
     5
100
AcDbMText
 10
-70.6632482473684
 20
71.21746279704068
 30
0.0
 40
2.000000029802322
 41
0.0
 71
     7
 72
     1
  1
HMOTNOST
  7
TextStyle59
 73
     2
 44
0.859967827796936
1001
ACAD
1000
MTEXTBEGIN
1070
    73
1070
     2
1070
    44
1040
0.859967827796936
1070
    74
1070
     0
1000
MTEXTEND
  0
MTEXT
  5
349
330
2EB
100
AcDbEntity
  8
2dTransTitleBlock
 62
   168
370
     5
100
AcDbMText
 10
-8.141618085705367
 20
71.37286588253954
 30
0.0
 40
2.000000029802322
 41
0.0
 71
     7
 72
     1
  1
POZ.
  7
TextStyle59
 73
     2
 44
0.859967827796936
1001
ACAD
1000
MTEXTBEGIN
1070
    73
1070
     2
1070
    44
1040
0.859967827796936
1070
    74
1070
     0
1000
MTEXTEND
  0
MTEXT
  5
34A
330
2EB
100
AcDbEntity
  8
2dTransTitleBlock
 62
   168
370
     5
100
AcDbMText
 10
-143.1238373937296
 20
71.48948842950904
 30
0.0
 40
2.000000029802322
 41
0.0
 71
     7
 72
     1
  1
\fISOCPEUR|b0|i0;\W1.00;\lNÁZEV
  7
TextStyle59
 73
     2
 44
0.859967827796936
1001
ACAD
1000
MTEXTBEGIN
1070
    73
1070
     2
1070
    44
1040
0.859967827796936
1070
    74
1070
     0
1000
MTEXTEND
  0
MTEXT
  5
34B
330
2EB
100
AcDbEntity
  8
2dTransTitleBlock
 62
   168
370
     5
100
AcDbMText
 10
-113.0
 20
26.3811487248112
 30
0.0
 40
2.000000029802322
 41
0.0
 71
     7
 72
     1
  1
\fISOCPEUR|b0|i0;\W1.00;\lNAHRAZUJE Č.V.
  7
TextStyle59
 73
     2
 44
0.859967827796936
1001
ACAD
1000
MTEXTBEGIN
1070
    73
1070
     2
1070
    44
1040
0.859967827796936
1070
    74
1070
     0
1000
MTEXTEND
  0
MTEXT
  5
34C
330
2EB
100
AcDbEntity
  8
2dTransTitleBlock
370
     5
100
AcDbMText
 10
-169.4563657304894
 20
11.14336385947928
 30
0.0
 40
6.99999988079071
 41
29.43985462188721
 71
     1
 72
     1
  1
\fISOCPEUR|b0|i1;\W1.00;\H7.0000;\lZAMET
 73
     2
 44
0.8599677681922912
1001
ACAD
1000
MTEXTBEGIN
1070
    73
1070
     2
1070
    44
1040
0.8599677681922912
1070
    74
1070
     0
1000
MTEXTEND
  0
MTEXT
  5
34E
330
2EB
100
AcDbEntity
  8
2dTransTitleBlock
370
     5
100
AcDbMText
 10
-40.28529342266438
 20
74.38816723593149
 30
0.0
 40
2.000000029802322
 41
19.59740281105041
 71
     1
 72
     1
  1
\fISOCPEUR|b0|i0;\W1.00;\H2.0000;\lČÍSLO VÝKRESU
 73
     2
 44
0.859967827796936
1001
ACAD
1000
MTEXTBEGIN
1070
    73
1070
     2
1070
    44
1040
0.859967827796936
1070
    74
1070
     0
1000
MTEXTEND
  0
ATTDEF
  5
34F
330
2EB
100
AcDbEntity
  8
2dTransTitleBlock
 62
   178
100
AcDbText
 10
-152.1494925876981
 20
65.9057100757073
 30
0.0
 40
2.5
  1
29.9.2005
 11
-152.1494925876981
 21
68.4057100757073
 31
0.0
100
AcDbAttributeDefinition
  3
DATUM VYTVOŘENÍ
  2
DATUM_VYTVOŘENÍ
 70
     0
 74
     3
  0
ATTDEF
  5
350
330
2EB
100
AcDbEntity
  8
2dTransTitleBlock
 62
   178
100
AcDbText
 10
-135.4649730066326
 20
66.88871050125273
 30
0.0
 40
2.5
  1

 11
-135.4649730066326
 21
69.38871050125273
 31
0.0
100
AcDbAttributeDefinition
  3
AUTHORITY
  2
AUTHORITY
 70
     0
 74
     3
  0
ATTDEF
  5
351
330
2EB
100
AcDbEntity
  8
2dTransTitleBlock
100
AcDbText
 10
-47.320003831192
 20
21.23598177149631
 30
0.0
 40
3.499999940395355
  1
RUKOJEŤ
 72
     1
 11
-37.01122480554374
 21
24.73598171189167
 31
0.0
100
AcDbAttributeDefinition
  3
DESCRIPTION
  2
DESCRIPTION
 70
     0
 74
     3
  0
ATTDEF
  5
352
330
2EB
100
AcDbEntity
  8
2dTransTitleBlock
100
AcDbText
 10
-21.27769131368441
 20
2.614480924599322
 30
0.0
 40
3.499999940395355
  1
1 
 11
-21.27769131368441
 21
6.114480864994678
 31
0.0
100
AcDbAttributeDefinition
  3
Počet listů
  2
Počet_listů
 70
     0
 74
     3
  0
ATTDEF
  5
353
330
2EB
100
AcDbEntity
  8
2dTransTitleBlock
100
AcDbText
 10
-6.831865473034405
 20
2.845614136557115
 30
0.0
 40
3.499999940395355
  1
1 
 11
-6.831865473034405
 21
6.34561407695247
 31
0.0
100
AcDbAttributeDefinition
  3
Číslo listu
  2
Číslo_listu
 70
     0
 74
     3
  0
ATTDEF
  5
354
330
2EB
100
AcDbEntity
  8
2dTransTitleBlock
100
AcDbText
 10
-97.23318490038948
 20
19.77832594816035
 30
0.0
 40
3.499999940395355
  1
1:1
 11
-97.23318490038948
 21
23.27832588855571
 31
0.0
100
AcDbAttributeDefinition
  3
měřítko
  2
měřítko
 70
     0
 74
     3
  0
ATTDEF
  5
355
330
2EB
100
AcDbEntity
  8
2dTransTitleBlock
100
AcDbText
 10
-70.27969277316159
 20
1.956091885589144
 30
0.0
 40
5.003799796104431
  1
605P2
 72
     2
 11
-50.26449358874387
 21
6.959891681693576
 31
0.0
100
AcDbAttributeDefinition
  3
PART NUMBER
  2
PART_NUMBER
 70
     0
 74
     3
  0
ATTDEF
  5
356
330
2EB
100
AcDbEntity
  8
2dTransTitleBlock
100
AcDbText
 10
-92.6609745372882
 20
55.83144218840072
 30
0.0
 40
2.5
  1

 72
     1
 11
-92.6609745372882
 21
58.33144218840072
 31
0.0
100
AcDbAttributeDefinition
  3
MATERIAL\F57;
  2
MATERIAL\F57;
 70
     0
 74
     3
  0
ATTDEF
  5
357
330
2EB
100
AcDbEntity
  8
2dTransTitleBlock
100
AcDbText
 10
-71.5564322998701
 20
12.1180924681678
 30
0.0
 40
5.003799796104431
  1
UPÍNKY
 72
     1
 11
-59.25243928201872
 21
17.12189226427223
 31
0.0
100
AcDbAttributeDefinition
  3
NÁZEV STROJE
  2
NÁZEV_STROJE
 70
     0
 74
     3
  0
ATTDEF
  5
358
330
2EB
100
AcDbEntity
  8
2dTransTitleBlock
100
AcDbText
 10
-137.3590911099149
 20
65.5686852215795
 30
0.0
 40
2.5
  1
KYSILKO
 11
-137.3590911099149
 21
68.0686852215795
 31
0.0
100
AcDbAttributeDefinition
  3
DESIGNER\F57;
  2
DESIGNER\F57;
 70
     0
 74
     3
  0
ATTDEF
  5
359
330
2EB
100
AcDbEntity
  8
2dTransTitleBlock
100
AcDbText
 10
-95.18817699866472
 20
66.29811631411754
 30
0.0
 40
2.5
  1
0,140
 11
-95.18817699866472
 21
68.79811631411754
 31
0.0
100
AcDbAttributeDefinition
  3
ENGINEER
  2
ENGINEER
 70
     0
 74
     3
  0
ATTDEF
  5
35A
330
2EB
100
AcDbEntity
  8
2dTransTitleBlock
100
AcDbText
 10
-46.59011077162874
 20
79.50744939621415
 30
0.0
 40
5.003799796104431
  1

 11
-46.59011077162874
 21
84.51124919231858
 31
0.0
100
AcDbAttributeDefinition
  3
COST CENTER
  2
COST_CENTER
 70
     0
 74
     3
  0
ENDBLK
  5
2ED
330
2EB
100
AcDbEntity
  8
0
100
AcDbBlockEnd
  0
BLOCK
  5
371
330
370
100
AcDbEntity
  8
0
100
AcDbBlockBegin
  2
2dTransSection0
 70
     0
 10
0.0
 20
0.0
 30
0.0
  3
2dTransSection0
  1

  0
LINE
  5
373
330
370
100
AcDbEntity
  8
Čáry řezu
  6
LONG_DASH_DOTTED
 48
0.0
370
    50
100
AcDbLine
 10
56.59308548866549
 20
268.7455870985063
 30
0.0
 11
56.59308548866549
 21
264.9657492309178
 31
0.0
  0
LINE
  5
374
330
370
100
AcDbEntity
  8
Čáry řezu
  6
LONG_DASH_DOTTED
 48
0.0
370
    50
100
AcDbLine
 10
56.59308548866549
 20
147.3689912532972
 30
0.0
 11
56.59308548866549
 21
143.5891533857086
 31
0.0
  0
LINE
  5
375
330
370
100
AcDbEntity
  8
Čáry řezu
  6
LONG_DASH_DOTTED
 48
0.0
370
    25
100
AcDbLine
 10
51.59308548866549
 20
266.855668164712
 30
0.0
 11
56.59308548866549
 21
266.855668164712
 31
0.0
  0
POLYLINE
  5
376
330
370
100
AcDbEntity
  8
Čáry řezu
  6
LONG_DASH_DOTTED
 48
0.0
370
    25
100
AcDb2dPolyline
 66
     1
 10
0.0
 20
0.0
 30
0.0
  0
VERTEX
  5
377
330
376
100
AcDbEntity
  8
Čáry řezu
  6
LONG_DASH_DOTTED
 48
0.0
370
    25
100
AcDbVertex
100
AcDb2dVertex
 10
51.59308548866549
 20
265.8556688380185
 30
0.0
  0
VERTEX
  5
378
330
376
100
AcDbEntity
  8
Čáry řezu
  6
LONG_DASH_DOTTED
 48
0.0
370
    25
100
AcDbVertex
100
AcDb2dVertex
 10
56.59308548866549
 20
266.8556678843442
 30
0.0
  0
VERTEX
  5
37A
330
376
100
AcDbEntity
  8
Čáry řezu
  6
LONG_DASH_DOTTED
 48
0.0
370
    25
100
AcDbVertex
100
AcDb2dVertex
 10
51.59308548866549
 20
267.8556669306698
 30
0.0
  0
VERTEX
  5
37B
330
376
100
AcDbEntity
  8
Čáry řezu
  6
LONG_DASH_DOTTED
 48
0.0
370
    25
100
AcDbVertex
100
AcDb2dVertex
 10
51.59308548866549
 20
265.8556688380185
 30
0.0
  0
SEQEND
  5
379
330
376
100
AcDbEntity
  8
Čáry řezu
  6
LONG_DASH_DOTTED
 48
0.0
370
    25
  0
SOLID
  5
37C
330
370
100
AcDbEntity
  8
0
100
AcDbTrace
 10
51.59308548866549
 20
265.8556688380185
 30
0.0
 11
56.59308548866549
 21
266.8556678843442
 31
0.0
 12
51.59308548866549
 22
267.8556669306698
 32
0.0
 13
51.59308548866549
 23
265.8556688380185
 33
0.0
  0
LINE
  5
37D
330
370
100
AcDbEntity
  8
Čáry řezu
  6
LONG_DASH_DOTTED
 48
0.0
370
    25
100
AcDbLine
 10
51.59308548866549
 20
265.855668164712
 30
0.0
 11
56.59308548866549
 21
266.855668164712
 31
0.0
  0
LINE
  5
37E
330
370
100
AcDbEntity
  8
Čáry řezu
  6
LONG_DASH_DOTTED
 48
0.0
370
    25
100
AcDbLine
 10
56.59308548866549
 20
266.855668164712
 30
0.0
 11
51.59308548866549
 21
267.855668164712
 31
0.0
  0
LINE
  5
37F
330
370
100
AcDbEntity
  8
Čáry řezu
  6
LONG_DASH_DOTTED
 48
0.0
370
    25
100
AcDbLine
 10
51.59308548866549
 20
267.855668164712
 30
0.0
 11
51.59308548866549
 21
265.855668164712
 31
0.0
  0
LINE
  5
380
330
370
100
AcDbEntity
  8
Čáry řezu
  6
LONG_DASH_DOTTED
 48
0.0
370
    25
100
AcDbLine
 10
46.41606266387463
 20
266.855668164712
 30
0.0
 11
51.59308548866549
 21
266.855668164712
 31
0.0
  0
LINE
  5
381
330
370
100
AcDbEntity
  8
Čáry řezu
  6
LONG_DASH_DOTTED
 48
0.0
370
    25
100
AcDbLine
 10
51.59308548866549
 20
145.4790723195029
 30
0.0
 11
56.59308548866549
 21
145.4790723195029
 31
0.0
  0
POLYLINE
  5
382
330
370
100
AcDbEntity
  8
Čáry řezu
  6
LONG_DASH_DOTTED
 48
0.0
370
    25
100
AcDb2dPolyline
 66
     1
 10
0.0
 20
0.0
 30
0.0
  0
VERTEX
  5
383
330
382
100
AcDbEntity
  8
Čáry řezu
  6
LONG_DASH_DOTTED
 48
0.0
370
    25
100
AcDbVertex
100
AcDb2dVertex
 10
51.59308548866549
 20
144.4790733408871
 30
0.0
  0
VERTEX
  5
384
330
382
100
AcDbEntity
  8
Čáry řezu
  6
LONG_DASH_DOTTED
 48
0.0
370
    25
100
AcDbVertex
100
AcDb2dVertex
 10
56.59308548866549
 20
145.4790723872128
 30
0.0
  0
VERTEX
  5
386
330
382
100
AcDbEntity
  8
Čáry řezu
  6
LONG_DASH_DOTTED
 48
0.0
370
    25
100
AcDbVertex
100
AcDb2dVertex
 10
51.59308548866549
 20
146.4790714335385
 30
0.0
  0
VERTEX
  5
387
330
382
100
AcDbEntity
  8
Čáry řezu
  6
LONG_DASH_DOTTED
 48
0.0
370
    25
100
AcDbVertex
100
AcDb2dVertex
 10
51.59308548866549
 20
144.4790733408871
 30
0.0
  0
SEQEND
  5
385
330
382
100
AcDbEntity
  8
Čáry řezu
  6
LONG_DASH_DOTTED
 48
0.0
370
    25
  0
SOLID
  5
388
330
370
100
AcDbEntity
  8
0
100
AcDbTrace
 10
51.59308548866549
 20
144.4790733408871
 30
0.0
 11
56.59308548866549
 21
145.4790723872128
 31
0.0
 12
51.59308548866549
 22
146.4790714335385
 32
0.0
 13
51.59308548866549
 23
144.4790733408871
 33
0.0
  0
LINE
  5
389
330
370
100
AcDbEntity
  8
Čáry řezu
  6
LONG_DASH_DOTTED
 48
0.0
370
    25
100
AcDbLine
 10
51.59308548866549
 20
144.4790723195029
 30
0.0
 11
56.59308548866549
 21
145.4790723195029
 31
0.0
  0
LINE
  5
38A
330
370
100
AcDbEntity
  8
Čáry řezu
  6
LONG_DASH_DOTTED
 48
0.0
370
    25
100
AcDbLine
 10
56.59308548866549
 20
145.4790723195029
 30
0.0
 11
51.59308548866549
 21
146.4790723195029
 31
0.0
  0
LINE
  5
38B
330
370
100
AcDbEntity
  8
Čáry řezu
  6
LONG_DASH_DOTTED
 48
0.0
370
    25
100
AcDbLine
 10
51.59308548866549
 20
146.4790723195029
 30
0.0
 11
51.59308548866549
 21
144.4790723195029
 31
0.0
  0
LINE
  5
38C
330
370
100
AcDbEntity
  8
Čáry řezu
  6
LONG_DASH_DOTTED
 48
0.0
370
    25
100
AcDbLine
 10
46.41606266387463
 20
145.4790723195029
 30
0.0
 11
51.59308548866549
 21
145.4790723195029
 31
0.0
  0
MTEXT
  5
38D
330
370
100
AcDbEntity
  8
Čáry řezu
  6
LONG_DASH_DOTTED
 48
0.0
370
    25
100
AcDbMText
 10
38.17921390234271
 20
264.2306683770536
 30
0.0
 40
5.24999976158142
 41
0.0
 71
     7
 72
     1
  1
A
  7
Text Style13
 73
     1
 44
1.0
1001
ACAD
1000
MTEXTBEGIN
1070
    73
1070
     1
1070
    44
1040
1.0
1070
    74
1070
     0
1000
MTEXTEND
  0
MTEXT
  5
38F
330
370
100
AcDbEntity
  8
Čáry řezu
  6
LONG_DASH_DOTTED
 48
0.0
370
    25
100
AcDbMText
 10
38.17921390234271
 20
142.8540725318444
 30
0.0
 40
5.24999976158142
 41
0.0
 71
     7
 72
     1
  1
A
  7
Text Style13
 73
     1
 44
1.0
1001
ACAD
1000
MTEXTBEGIN
1070
    73
1070
     1
1070
    44
1040
1.0
1070
    74
1070
     0
1000
MTEXTEND
  0
ENDBLK
  5
372
330
370
100
AcDbEntity
  8
0
100
AcDbBlockEnd
  0
BLOCK
  5
3D0
330
3CF
100
AcDbEntity
  8
0
100
AcDbBlockBegin
  2
2dTransSymbol1
 70
     0
 10
0.0
 20
0.0
 30
0.0
  3
2dTransSymbol1
  1

  0
LINE
  5
3D2
330
3CF
100
AcDbEntity
  8
Odkazová čára
  6
Continuous
 62
    18
 48
0.0
370
     9
100
AcDbLine
 10
167.9763254851367
 20
273.9362068215907
 30
0.0
 11
170.8053417559881
 21
269.0362069050372
 31
0.0
  0
LINE
  5
3D3
330
3CF
100
AcDbEntity
  8
Odkazová čára
  6
Continuous
 62
    18
 48
0.0
370
     9
100
AcDbLine
 10
170.8053417559881
 20
269.0362069050372
 30
0.0
 11
177.271664660791
 21
280.2362067143024
 31
0.0
  0
CIRCLE
  5
3D4
330
3CF
100
AcDbEntity
  8
Odkazová čára
  6
Continuous
 62
    18
 48
0.0
370
     9
100
AcDbCircle
 10
170.8053417559881
 20
272.3028735160729
 30
0.0
 40
1.633333305517832
  0
LINE
  5
3D5
330
3CF
100
AcDbEntity
  8
Odkazová čára
  6
Continuous
 62
    18
 48
0.0
370
     9
100
AcDbLine
 10
182.5506808899191
 20
273.9362068215907
 30
0.0
 11
185.3796971607704
 21
269.0362069050372
 31
0.0
  0
LINE
  5
3D6
330
3CF
100
AcDbEntity
  8
Odkazová čára
  6
Continuous
 62
    18
 48
0.0
370
     9
100
AcDbLine
 10
185.3796971607704
 20
269.0362069050372
 30
0.0
 11
191.8460200655734
 21
280.2362067143024
 31
0.0
  0
ARC
  5
3D7
330
3CF
100
AcDbEntity
  8
Odkazová čára
  6
Continuous
 62
    18
 48
0.0
370
     9
100
AcDbCircle
 10
192.0298473951565
 20
274.6362068096698
 30
0.0
 40
11.57916646947464
100
AcDbArc
 50
144.9488632525543
 51
215.0511367474457
  0
ARC
  5
3D8
330
3CF
100
AcDbEntity
  8
Odkazová čára
  6
Continuous
 62
    18
 48
0.0
370
     9
100
AcDbCircle
 10
182.366853560336
 20
274.6362068096698
 30
0.0
 40
11.57916646947464
100
AcDbArc
 50
324.9488632525544
 51
35.05113674744566
  0
ENDBLK
  5
3D1
330
3CF
100
AcDbEntity
  8
0
100
AcDbBlockEnd
  0
BLOCK
  5
500
330
4FF
100
AcDbEntity
  8
0
100
AcDbBlockBegin
  2
Rozpiska359722721
 70
     0
 10
0.0
 20
0.0
 30
0.0
  3
Rozpiska359722721
  1

  0
MTEXT
  5
503
330
4FF
100
AcDbEntity
  8
2dTransPartListTable
  6
Continuous
 48
0.0
370
     9
100
AcDbMText
 10
33.09081546664238
 20
99.06764508693596
 30
0.0
 40
3.499999940395355
 41
0.0
 71
     7
 72
     1
  1
1
  7
Text Style11
 73
     1
 44
1.0
1001
ACAD
1000
MTEXTBEGIN
1070
    73
1070
     1
1070
    44
1040
1.0
1070
    74
1070
     0
1000
MTEXTEND
  0
LINE
  5
504
330
4FF
100
AcDbEntity
  8
2dTransPartListTable
  6
Continuous
 62
    18
 48
0.0
370
     9
100
AcDbLine
 10
38.00000000000001
 20
103.9891772125614
 30
0.0
 11
38.00000000000001
 21
97.65945147504098
 31
0.0
  0
MTEXT
  5
505
330
4FF
100
AcDbEntity
  8
2dTransPartListTable
  6
Continuous
 62
   178
 48
0.0
370
     9
100
AcDbMText
 10
38.9
 20
98.63147891609697
 30
0.0
 40
3.499999940395355
 41
0.0
 71
     7
 72
     1
  1
PLASTOVÝ NÁVLEK
  7
Text Style11
 73
     1
 44
1.0
1001
ACAD
1000
MTEXTBEGIN
1070
    73
1070
     1
1070
    44
1040
1.0
1070
    74
1070
     0
1000
MTEXTEND
  0
LINE
  5
506
330
4FF
100
AcDbEntity
  8
2dTransPartListTable
  6
Continuous
 62
    18
 48
0.0
370
     9
100
AcDbLine
 10
98.0
 20
103.9891772125614
 30
0.0
 11
98.0
 21
97.65945147504098
 31
0.0
  0
MTEXT
  5
507
330
4FF
100
AcDbEntity
  8
2dTransPartListTable
  6
Continuous
 62
    18
 48
0.0
370
     9
100
AcDbMText
 10
98.9
 20
99.0436359399173
 30
0.0
 40
3.499999940395355
 41
0.0
 71
     7
 72
     1
  1
PVC
  7
Text Style11
 73
     1
 44
1.0
1001
ACAD
1000
MTEXTBEGIN
1070
    73
1070
     1
1070
    44
1040
1.0
1070
    74
1070
     0
1000
MTEXTEND
  0
LINE
  5
508
330
4FF
100
AcDbEntity
  8
2dTransPartListTable
  6
Continuous
 62
    18
 48
0.0
370
     9
100
AcDbLine
 10
123.0
 20
103.9891772125614
 30
0.0
 11
123.0
 21
97.65945147504098
 31
0.0
  0
MTEXT
  5
509
330
4FF
100
AcDbEntity
  8
2dTransPartListTable
  6
Continuous
 48
0.0
370
     9
100
AcDbMText
 10
123.9
 20
99.06764508693596
 30
0.0
 40
3.499999940395355
 41
0.0
 71
     7
 72
     1
  1
0,012 kg
  7
Text Style11
 73
     1
 44
1.0
1001
ACAD
1000
MTEXTBEGIN
1070
    73
1070
     1
1070
    44
1040
1.0
1070
    74
1070
     0
1000
MTEXTEND
  0
LINE
  5
50A
330
4FF
100
AcDbEntity
  8
2dTransPartListTable
  6
Continuous
 62
    18
 48
0.0
370
     9
100
AcDbLine
 10
150.0
 20
103.9891772125614
 30
0.0
 11
150.0
 21
97.65945147504098
 31
0.0
  0
MTEXT
  5
50B
330
4FF
100
AcDbEntity
  8
2dTransPartListTable
  6
Continuous
 48
0.0
370
     9
100
AcDbMText
 10
150.9
 20
99.06764508693596
 30
0.0
 40
3.499999940395355
 41
0.0
 71
     7
 72
     1
  1
605-24E1
  7
Text Style11
 73
     1
 44
1.0
1001
ACAD
1000
MTEXTBEGIN
1070
    73
1070
     1
1070
    44
1040
1.0
1070
    74
1070
     0
1000
MTEXTEND
  0
LINE
  5
50C
330
4FF
100
AcDbEntity
  8
2dTransPartListTable
  6
Continuous
 62
    18
 48
0.0
370
     9
100
AcDbLine
 10
190.0
 20
103.9891772125614
 30
0.0
 11
190.0
 21
97.65945147504098
 31
0.0
  0
MTEXT
  5
50D
330
4FF
100
AcDbEntity
  8
2dTransPartListTable
  6
Continuous
 62
    18
 48
0.0
370
     9
100
AcDbMText
 10
194.0908154666423
 20
99.06764508693596
 30
0.0
 40
3.499999940395355
 41
0.0
 71
     7
 72
     1
  1
3
  7
Text Style11
 73
     1
 44
1.0
1001
ACAD
1000
MTEXTBEGIN
1070
    73
1070
     1
1070
    44
1040
1.0
1070
    74
1070
     0
1000
MTEXTEND
  0
LINE
  5
50E
330
4FF
100
AcDbEntity
  8
2dTransPartListTable
  6
Continuous
 62
    18
 48
0.0
370
     9
100
AcDbLine
 10
30.0
 20
97.65945147504098
 30
0.0
 11
200.0
 21
97.65945147504098
 31
0.0
  0
MTEXT
  5
50F
330
4FF
100
AcDbEntity
  8
2dTransPartListTable
  6
Continuous
 62
    18
 48
0.0
370
     9
100
AcDbMText
 10
33.09081546664238
 20
92.73791934941545
 30
0.0
 40
3.499999940395355
 41
0.0
 71
     7
 72
     1
  1
1
  7
Text Style11
 73
     1
 44
1.0
1001
ACAD
1000
MTEXTBEGIN
1070
    73
1070
     1
1070
    44
1040
1.0
1070
    74
1070
     0
1000
MTEXTEND
  0
LINE
  5
510
330
4FF
100
AcDbEntity
  8
2dTransPartListTable
  6
Continuous
 62
    18
 48
0.0
370
     9
100
AcDbLine
 10
38.00000000000001
 20
97.65945147504098
 30
0.0
 11
38.00000000000001
 21
91.32972573752049
 31
0.0
  0
MTEXT
  5
511
330
4FF
100
AcDbEntity
  8
2dTransPartListTable
  6
Continuous
 48
0.0
370
     9
100
AcDbMText
 10
38.9
 20
92.71391020239679
 30
0.0
 40
3.499999940395355
 41
0.0
 71
     7
 72
     1
  1
KONCOVKA
  7
Text Style11
 73
     1
 44
1.0
1001
ACAD
1000
MTEXTBEGIN
1070
    73
1070
     1
1070
    44
1040
1.0
1070
    74
1070
     0
1000
MTEXTEND
  0
LINE
  5
512
330
4FF
100
AcDbEntity
  8
2dTransPartListTable
  6
Continuous
 62
    18
 48
0.0
370
     9
100
AcDbLine
 10
98.0
 20
97.65945147504098
 30
0.0
 11
98.0
 21
91.32972573752049
 31
0.0
  0
MTEXT
  5
513
330
4FF
100
AcDbEntity
  8
2dTransPartListTable
  6
Continuous
 48
0.0
370
     9
100
AcDbMText
 10
98.9
 20
92.73791934941545
 30
0.0
 40
3.499999940395355
 41
0.0
 71
     7
 72
     1
  1
11 523.0
  7
Text Style11
 73
     1
 44
1.0
1001
ACAD
1000
MTEXTBEGIN
1070
    73
1070
     1
1070
    44
1040
1.0
1070
    74
1070
     0
1000
MTEXTEND
  0
LINE
  5
514
330
4FF
100
AcDbEntity
  8
2dTransPartListTable
  6
Continuous
 62
    18
 48
0.0
370
     9
100
AcDbLine
 10
123.0
 20
97.65945147504098
 30
0.0
 11
123.0
 21
91.32972573752049
 31
0.0
  0
MTEXT
  5
515
330
4FF
100
AcDbEntity
  8
2dTransPartListTable
  6
Continuous
 48
0.0
370
     9
100
AcDbMText
 10
123.9
 20
92.73791934941545
 30
0.0
 40
3.499999940395355
 41
0.0
 71
     7
 72
     1
  1
0,037 kg
  7
Text Style11
 73
     1
 44
1.0
1001
ACAD
1000
MTEXTBEGIN
1070
    73
1070
     1
1070
    44
1040
1.0
1070
    74
1070
     0
1000
MTEXTEND
  0
LINE
  5
516
330
4FF
100
AcDbEntity
  8
2dTransPartListTable
  6
Continuous
 62
    18
 48
0.0
370
     9
100
AcDbLine
 10
150.0
 20
97.65945147504098
 30
0.0
 11
150.0
 21
91.32972573752049
 31
0.0
  0
MTEXT
  5
517
330
4FF
100
AcDbEntity
  8
2dTransPartListTable
  6
Continuous
 48
0.0
370
     9
100
AcDbMText
 10
150.9
 20
92.73791934941545
 30
0.0
 40
3.499999940395355
 41
0.0
 71
     7
 72
     1
  1
605-23E1
  7
Text Style11
 73
     1
 44
1.0
1001
ACAD
1000
MTEXTBEGIN
1070
    73
1070
     1
1070
    44
1040
1.0
1070
    74
1070
     0
1000
MTEXTEND
  0
LINE
  5
518
330
4FF
100
AcDbEntity
  8
2dTransPartListTable
  6
Continuous
 62
    18
 48
0.0
370
     9
100
AcDbLine
 10
190.0
 20
97.65945147504098
 30
0.0
 11
190.0
 21
91.32972573752049
 31
0.0
  0
MTEXT
  5
519
330
4FF
100
AcDbEntity
  8
2dTransPartListTable
  6
Continuous
 62
    18
 48
0.0
370
     9
100
AcDbMText
 10
194.0908154666423
 20
92.73791934941545
 30
0.0
 40
3.499999940395355
 41
0.0
 71
     7
 72
     1
  1
2
  7
Text Style11
 73
     1
 44
1.0
1001
ACAD
1000
MTEXTBEGIN
1070
    73
1070
     1
1070
    44
1040
1.0
1070
    74
1070
     0
1000
MTEXTEND
  0
LINE
  5
51A
330
4FF
100
AcDbEntity
  8
2dTransPartListTable
  6
Continuous
 62
    18
 48
0.0
370
     9
100
AcDbLine
 10
30.0
 20
91.32972573752049
 30
0.0
 11
200.0
 21
91.32972573752049
 31
0.0
  0
MTEXT
  5
51B
330
4FF
100
AcDbEntity
  8
2dTransPartListTable
  6
Continuous
 48
0.0
370
     9
100
AcDbMText
 10
33.09081546664238
 20
86.40819361189498
 30
0.0
 40
3.499999940395355
 41
0.0
 71
     7
 72
     1
  1
1
  7
Text Style11
 73
     1
 44
1.0
1001
ACAD
1000
MTEXTBEGIN
1070
    73
1070
     1
1070
    44
1040
1.0
1070
    74
1070
     0
1000
MTEXTEND
  0
LINE
  5
51C
330
4FF
100
AcDbEntity
  8
2dTransPartListTable
  6
Continuous
 62
    18
 48
0.0
370
     9
100
AcDbLine
 10
38.00000000000001
 20
91.32972573752049
 30
0.0
 11
38.00000000000001
 21
85.0
 31
0.0
  0
MTEXT
  5
51D
330
4FF
100
AcDbEntity
  8
2dTransPartListTable
  6
Continuous
 48
0.0
370
     9
100
AcDbMText
 10
38.9
 20
86.40819361189498
 30
0.0
 40
3.499999940395355
 41
0.0
 71
     7
 72
     1
  1
TRUBKA 1
  7
Text Style11
 73
     1
 44
1.0
1001
ACAD
1000
MTEXTBEGIN
1070
    73
1070
     1
1070
    44
1040
1.0
1070
    74
1070
     0
1000
MTEXTEND
  0
LINE
  5
51E
330
4FF
100
AcDbEntity
  8
2dTransPartListTable
  6
Continuous
 62
    18
 48
0.0
370
     9
100
AcDbLine
 10
98.0
 20
91.32972573752049
 30
0.0
 11
98.0
 21
85.0
 31
0.0
  0
MTEXT
  5
51F
330
4FF
100
AcDbEntity
  8
2dTransPartListTable
  6
Continuous
 48
0.0
370
     9
100
AcDbMText
 10
98.9
 20
86.40819361189498
 30
0.0
 40
3.499999940395355
 41
0.0
 71
     7
 72
     1
  1
11 523.0
  7
Text Style11
 73
     1
 44
1.0
1001
ACAD
1000
MTEXTBEGIN
1070
    73
1070
     1
1070
    44
1040
1.0
1070
    74
1070
     0
1000
MTEXTEND
  0
LINE
  5
520
330
4FF
100
AcDbEntity
  8
2dTransPartListTable
  6
Continuous
 62
    18
 48
0.0
370
     9
100
AcDbLine
 10
123.0
 20
91.32972573752049
 30
0.0
 11
123.0
 21
85.0
 31
0.0
  0
MTEXT
  5
521
330
4FF
100
AcDbEntity
  8
2dTransPartListTable
  6
Continuous
 62
    18
 48
0.0
370
     9
100
AcDbMText
 10
123.9
 20
86.40819361189498
 30
0.0
 40
3.499999940395355
 41
0.0
 71
     7
 72
     1
  1
0,091 kg
  7
Text Style11
 73
     1
 44
1.0
1001
ACAD
1000
MTEXTBEGIN
1070
    73
1070
     1
1070
    44
1040
1.0
1070
    74
1070
     0
1000
MTEXTEND
  0
LINE
  5
522
330
4FF
100
AcDbEntity
  8
2dTransPartListTable
  6
Continuous
 62
    18
 48
0.0
370
     9
100
AcDbLine
 10
150.0
 20
91.32972573752049
 30
0.0
 11
150.0
 21
85.0
 31
0.0
  0
MTEXT
  5
523
330
4FF
100
AcDbEntity
  8
2dTransPartListTable
  6
Continuous
 48
0.0
370
     9
100
AcDbMText
 10
150.9
 20
86.40819361189498
 30
0.0
 40
3.499999940395355
 41
0.0
 71
     7
 72
     1
  1
605-22E1
  7
Text Style11
 73
     1
 44
1.0
1001
ACAD
1000
MTEXTBEGIN
1070
    73
1070
     1
1070
    44
1040
1.0
1070
    74
1070
     0
1000
MTEXTEND
  0
LINE
  5
524
330
4FF
100
AcDbEntity
  8
2dTransPartListTable
  6
Continuous
 62
    18
 48
0.0
370
     9
100
AcDbLine
 10
190.0
 20
91.32972573752049
 30
0.0
 11
190.0
 21
85.0
 31
0.0
  0
MTEXT
  5
525
330
4FF
100
AcDbEntity
  8
2dTransPartListTable
  6
Continuous
 48
0.0
370
     9
100
AcDbMText
 10
194.0908154666423
 20
86.40819361189498
 30
0.0
 40
3.499999940395355
 41
0.0
 71
     7
 72
     1
  1
1
  7
Text Style11
 73
     1
 44
1.0
1001
ACAD
1000
MTEXTBEGIN
1070
    73
1070
     1
1070
    44
1040
1.0
1070
    74
1070
     0
1000
MTEXTEND
  0
LINE
  5
526
330
4FF
100
AcDbEntity
  8
2dTransPartListTable
  6
Continuous
 62
    18
 48
0.0
370
     9
100
AcDbLine
 10
30.0
 20
103.9891772125614
 30
0.0
 11
200.0
 21
103.9891772125614
 31
0.0
  0
LINE
  5
527
330
4FF
100
AcDbEntity
  8
2dTransPartListTable
  6
Continuous
 62
    18
 48
0.0
370
     9
100
AcDbLine
 10
200.0
 20
103.9891772125614
 30
0.0
 11
200.0
 21
85.0
 31
0.0
  0
LINE
  5
528
330
4FF
100
AcDbEntity
  8
2dTransPartListTable
  6
Continuous
 62
    18
 48
0.0
370
     9
100
AcDbLine
 10
200.0
 20
85.0
 30
0.0
 11
30.0
 21
85.0
 31
0.0
  0
LINE
  5
529
330
4FF
100
AcDbEntity
  8
2dTransPartListTable
  6
Continuous
 62
    18
 48
0.0
370
     9
100
AcDbLine
 10
30.0
 20
85.0
 30
0.0
 11
30.0
 21
103.9891772125614
 31
0.0
  0
ENDBLK
  5
501
330
4FF
100
AcDbEntity
  8
0
100
AcDbBlockEnd
  0
BLOCK
  5
52C
330
52B
100
AcDbEntity
  8
0
100
AcDbBlockBegin
  2
2dTransSymbol2
 70
     0
 10
0.0
 20
0.0
 30
0.0
  3
2dTransSymbol2
  1

  0
LINE
  5
52E
330
52B
100
AcDbEntity
  8
Odkazová čára
  6
Continuous
 62
    18
 48
0.0
370
     9
100
AcDbLine
 10
103.9180999576534
 20
164.1252257705931
 30
0.0
 11
105.6457214621339
 21
162.3182050354446
 31
0.0
  0
POLYLINE
  5
52F
330
52B
100
AcDbEntity
  8
Odkazová čára
  6
Continuous
 62
    18
 48
0.0
370
     9
100
AcDb2dPolyline
 66
     1
 10
0.0
 20
0.0
 30
0.0
  0
VERTEX
  5
530
330
52F
100
AcDbEntity
  8
Odkazová čára
  6
Continuous
 62
    18
 48
0.0
370
     9
100
AcDbVertex
100
AcDb2dVertex
 10
103.5566997528076
 20
163.7796974182129
 30
0.0
  0
VERTEX
  5
531
330
52F
100
AcDbEntity
  8
Odkazová čára
  6
Continuous
 62
    18
 48
0.0
370
     9
100
AcDbVertex
100
AcDb2dVertex
 10
105.6457233428955
 20
162.3182106018066
 30
0.0
  0
VERTEX
  5
533
330
52F
100
AcDbEntity
  8
Odkazová čára
  6
Continuous
 62
    18
 48
0.0
370
     9
100
AcDbVertex
100
AcDb2dVertex
 10
104.2795085906982
 20
164.4707489013672
 30
0.0
  0
VERTEX
  5
534
330
52F
100
AcDbEntity
  8
Odkazová čára
  6
Continuous
 62
    18
 48
0.0
370
     9
100
AcDbVertex
100
AcDb2dVertex
 10
103.5566997528076
 20
163.7796974182129
 30
0.0
  0
SEQEND
  5
532
330
52F
100
AcDbEntity
  8
Odkazová čára
  6
Continuous
 62
    18
 48
0.0
370
     9
  0
SOLID
  5
535
330
52B
100
AcDbEntity
  8
0
 62
    18
100
AcDbTrace
 10
103.5566997528076
 20
163.7796974182129
 30
0.0
 11
105.6457233428955
 21
162.3182106018066
 31
0.0
 12
104.2795085906982
 22
164.4707489013672
 32
0.0
 13
103.5566997528076
 23
163.7796974182129
 33
0.0
  0
LINE
  5
536
330
52B
100
AcDbEntity
  8
Odkazová čára
  6
Continuous
 62
    18
 48
0.0
370
     9
100
AcDbLine
 10
103.5566958106237
 20
163.7797014696969
 30
0.0
 11
105.6457214621339
 21
162.3182050354446
 31
0.0
  0
LINE
  5
537
330
52B
100
AcDbEntity
  8
Odkazová čára
  6
Continuous
 62
    18
 48
0.0
370
     9
100
AcDbLine
 10
105.6457214621339
 20
162.3182050354446
 30
0.0
 11
104.2795041046831
 21
164.4707500714892
 31
0.0
  0
LINE
  5
538
330
52B
100
AcDbEntity
  8
Odkazová čára
  6
Continuous
 62
    18
 48
0.0
370
     9
100
AcDbLine
 10
104.2795041046831
 20
164.4707500714892
 30
0.0
 11
103.5566958106237
 21
163.7797014696969
 31
0.0
  0
LINE
  5
539
330
52B
100
AcDbEntity
  8
Odkazová čára
  6
Continuous
 62
    18
 48
0.0
370
     9
100
AcDbLine
 10
103.9180999576534
 20
164.1252257705931
 30
0.0
 11
83.78271035252215
 21
185.1860116154094
 31
0.0
  0
MTEXT
  5
53A
330
52B
100
AcDbEntity
  8
Odkazová čára
  6
Continuous
 48
0.0
370
     9
100
AcDbMText
 10
77.17352590857149
 20
187.8110115707059
 30
0.0
 40
3.499999940395355
 41
0.0
 71
     7
 72
     1
  1
1
  7
Text Style11
 73
     1
 44
1.0
1001
ACAD
1000
MTEXTBEGIN
1070
    73
1070
     1
1070
    44
1040
1.0
1070
    74
1070
     0
1000
MTEXTEND
  0
LINE
  5
53B
330
52B
100
AcDbEntity
  8
Odkazová čára
  6
Continuous
 62
    18
 48
0.0
370
     9
100
AcDbLine
 10
83.78271035252215
 20
185.1860116154094
 30
0.0
 11
73.28271053133608
 21
185.1860116154094
 31
0.0
  0
ENDBLK
  5
52D
330
52B
100
AcDbEntity
  8
0
100
AcDbBlockEnd
  0
BLOCK
  5
53E
330
53D
100
AcDbEntity
  8
0
100
AcDbBlockBegin
  2
2dTransSymbol3
 70
     0
 10
0.0
 20
0.0
 30
0.0
  3
2dTransSymbol3
  1

  0
LINE
  5
540
330
53D
100
AcDbEntity
  8
Odkazová čára
  6
Continuous
 62
    18
 48
0.0
370
     9
100
AcDbLine
 10
101.6226196625272
 20
188.1066288359507
 30
0.0
 11
103.6457214621411
 21
186.6379358427084
 31
0.0
  0
POLYLINE
  5
541
330
53D
100
AcDbEntity
  8
Odkazová čára
  6
Continuous
 62
    18
 48
0.0
370
     9
100
AcDb2dPolyline
 66
     1
 10
0.0
 20
0.0
 30
0.0
  0
VERTEX
  5
542
330
541
100
AcDbEntity
  8
Odkazová čára
  6
Continuous
 62
    18
 48
0.0
370
     9
100
AcDbVertex
100
AcDb2dVertex
 10
101.3288784027099
 20
187.7020072937011
 30
0.0
  0
VERTEX
  5
543
330
541
100
AcDbEntity
  8
Odkazová čára
  6
Continuous
 62
    18
 48
0.0
370
     9
100
AcDbVertex
100
AcDb2dVertex
 10
103.6457252502441
 20
186.6379356384277
 30
0.0
  0
VERTEX
  5
545
330
541
100
AcDbEntity
  8
Odkazová čára
  6
Continuous
 62
    18
 48
0.0
370
     9
100
AcDbVertex
100
AcDb2dVertex
 10
101.9163608551025
 20
188.5112571716308
 30
0.0
  0
VERTEX
  5
546
330
541
100
AcDbEntity
  8
Odkazová čára
  6
Continuous
 62
    18
 48
0.0
370
     9
100
AcDbVertex
100
AcDb2dVertex
 10
101.3288784027099
 20
187.7020072937011
 30
0.0
  0
SEQEND
  5
544
330
541
100
AcDbEntity
  8
Odkazová čára
  6
Continuous
 62
    18
 48
0.0
370
     9
  0
SOLID
  5
547
330
53D
100
AcDbEntity
  8
0
 62
    18
100
AcDbTrace
 10
101.3288784027099
 20
187.7020072937011
 30
0.0
 11
103.6457252502441
 21
186.6379356384277
 31
0.0
 12
101.9163608551025
 22
188.5112571716308
 32
0.0
 13
101.3288784027099
 23
187.7020072937011
 33
0.0
  0
LINE
  5
548
330
53D
100
AcDbEntity
  8
Odkazová čára
  6
Continuous
 62
    18
 48
0.0
370
     9
100
AcDbLine
 10
101.3288810638788
 20
187.7020084760279
 30
0.0
 11
103.6457214621411
 21
186.6379358427084
 31
0.0
  0
LINE
  5
549
330
53D
100
AcDbEntity
  8
Odkazová čára
  6
Continuous
 62
    18
 48
0.0
370
     9
100
AcDbLine
 10
103.6457214621411
 20
186.6379358427084
 30
0.0
 11
101.9163582611757
 21
188.5112491958734
 31
0.0
  0
LINE
  5
54A
330
53D
100
AcDbEntity
  8
Odkazová čára
  6
Continuous
 62
    18
 48
0.0
370
     9
100
AcDbLine
 10
101.9163582611757
 20
188.5112491958734
 30
0.0
 11
101.3288810638788
 21
187.7020084760279
 31
0.0
  0
LINE
  5
54B
330
53D
100
AcDbEntity
  8
Odkazová čára
  6
Continuous
 62
    18
 48
0.0
370
     9
100
AcDbLine
 10
101.6226196625272
 20
188.1066288359507
 30
0.0
 11
84.14569138505108
 21
200.7941970588771
 31
0.0
  0
MTEXT
  5
54C
330
53D
100
AcDbEntity
  8
Odkazová čára
  6
Continuous
 48
0.0
370
     9
100
AcDbMText
 10
77.53650694110042
 20
203.4778860402193
 30
0.0
 40
3.499999940395355
 41
0.0
 71
     7
 72
     1
  1
3
  7
Text Style11
 73
     1
 44
1.0
1001
ACAD
1000
MTEXTBEGIN
1070
    73
1070
     1
1070
    44
1040
1.0
1070
    74
1070
     0
1000
MTEXTEND
  0
LINE
  5
54D
330
53D
100
AcDbEntity
  8
Odkazová čára
  6
Continuous
 62
    18
 48
0.0
370
     9
100
AcDbLine
 10
84.14569138505108
 20
200.7941970588771
 30
0.0
 11
73.64569156386501
 21
200.7941970588771
 31
0.0
  0
ENDBLK
  5
53F
330
53D
100
AcDbEntity
  8
0
100
AcDbBlockEnd
  0
BLOCK
  5
550
330
54F
100
AcDbEntity
  8
0
100
AcDbBlockBegin
  2
2dTransSymbol4
 70
     0
 10
0.0
 20
0.0
 30
0.0
  3
2dTransSymbol4
  1

  0
LINE
  5
552
330
54F
100
AcDbEntity
  8
Odkazová čára
  6
Continuous
 62
    18
 48
0.0
370
     9
100
AcDbLine
 10
117.6366456228696
 20
238.7478747211603
 30
0.0
 11
119.6509503324192
 21
240.2286098551684
 31
0.0
  0
POLYLINE
  5
553
330
54F
100
AcDbEntity
  8
Odkazová čára
  6
Continuous
 62
    18
 48
0.0
370
     9
100
AcDb2dPolyline
 66
     1
 10
0.0
 20
0.0
 30
0.0
  0
VERTEX
  5
554
330
553
100
AcDbEntity
  8
Odkazová čára
  6
Continuous
 62
    18
 48
0.0
370
     9
100
AcDbVertex
100
AcDb2dVertex
 10
117.9327964782715
 20
238.3450126647949
 30
0.0
  0
VERTEX
  5
555
330
553
100
AcDbEntity
  8
Odkazová čára
  6
Continuous
 62
    18
 48
0.0
370
     9
100
AcDbVertex
100
AcDb2dVertex
 10
119.6509456634521
 20
240.2286148071289
 30
0.0
  0
VERTEX
  5
557
330
553
100
AcDbEntity
  8
Odkazová čára
  6
Continuous
 62
    18
 48
0.0
370
     9
100
AcDbVertex
100
AcDb2dVertex
 10
117.340497970581
 20
239.1507339477539
 30
0.0
  0
VERTEX
  5
558
330
553
100
AcDbEntity
  8
Odkazová čára
  6
Continuous
 62
    18
 48
0.0
370
     9
100
AcDbVertex
100
AcDb2dVertex
 10
117.9327964782715
 20
238.3450126647949
 30
0.0
  0
SEQEND
  5
556
330
553
100
AcDbEntity
  8
Odkazová čára
  6
Continuous
 62
    18
 48
0.0
370
     9
  0
SOLID
  5
559
330
54F
100
AcDbEntity
  8
0
 62
    18
100
AcDbTrace
 10
117.9327964782715
 20
238.3450126647949
 30
0.0
 11
119.6509456634521
 21
240.2286148071289
 31
0.0
 12
117.340497970581
 22
239.1507339477539
 32
0.0
 13
117.9327964782715
 23
238.3450126647949
 33
0.0
  0
LINE
  5
55A
330
54F
100
AcDbEntity
  8
Odkazová čára
  6
Continuous
 62
    18
 48
0.0
370
     9
100
AcDbLine
 10
117.9327926496712
 20
238.3450137792503
 30
0.0
 11
119.6509503324192
 21
240.2286098551684
 31
0.0
  0
LINE
  5
55B
330
54F
100
AcDbEntity
  8
Odkazová čára
  6
Continuous
 62
    18
 48
0.0
370
     9
100
AcDbLine
 10
119.6509503324192
 20
240.2286098551684
 30
0.0
 11
117.340498596068
 21
239.1507356630702
 31
0.0
  0
LINE
  5
55C
330
54F
100
AcDbEntity
  8
Odkazová čára
  6
Continuous
 62
    18
 48
0.0
370
     9
100
AcDbLine
 10
117.340498596068
 20
239.1507356630702
 30
0.0
 11
117.9327926496712
 21
238.3450137792503
 31
0.0
  0
LINE
  5
55D
330
54F
100
AcDbEntity
  8
Odkazová čára
  6
Continuous
 62
    18
 48
0.0
370
     9
100
AcDbLine
 10
117.6366456228696
 20
238.7478747211603
 30
0.0
 11
116.7457214621564
 21
238.0929476387529
 31
0.0
  0
LINE
  5
55E
330
54F
100
AcDbEntity
  8
Odkazová čára
  6
Continuous
 62
    18
 48
0.0
370
     9
100
AcDbLine
 10
116.5457214621564
 20
237.945925678571
 30
0.0
 11
83.78271035252215
 21
213.861515104571
 31
0.0
  0
MTEXT
  5
55F
330
54F
100
AcDbEntity
  8
Odkazová čára
  6
Continuous
 62
    18
 48
0.0
370
     9
100
AcDbMText
 10
77.17352590857149
 20
216.4865150598675
 30
0.0
 40
3.499999940395355
 41
0.0
 71
     7
 72
     1
  1
2
  7
Text Style11
 73
     1
 44
1.0
1001
ACAD
1000
MTEXTBEGIN
1070
    73
1070
     1
1070
    44
1040
1.0
1070
    74
1070
     0
1000
MTEXTEND
  0
LINE
  5
560
330
54F
100
AcDbEntity
  8
Odkazová čára
  6
Continuous
 62
    18
 48
0.0
370
     9
100
AcDbLine
 10
83.78271035252215
 20
213.861515104571
 30
0.0
 11
73.28271053133608
 21
213.861515104571
 31
0.0
  0
ENDBLK
  5
551
330
54F
100
AcDbEntity
  8
0
100
AcDbBlockEnd
  0
BLOCK
  5
574
330
56A
100
AcDbEntity
  8
0
100
AcDbBlockBegin
  2
*D55
 70
     1
 10
0.0
 20
0.0
 30
0.0
  3
*D55
  1

  0
LINE
  5
56B
330
56A
100
AcDbEntity
  8
Kóty
  6
Continuous
 62
     1
370
     0
100
AcDbLine
 10
105.6457214621312
 20
153.2286098551726
 30
0.0
 11
105.6457214621266
 21
137.5379968681551
 31
0.0
  0
LINE
  5
56C
330
56A
100
AcDbEntity
  8
Kóty
  6
Continuous
 62
     1
370
     0
100
AcDbLine
 10
127.6457214621312
 20
153.2286098551661
 30
0.0
 11
127.6457214621266
 21
137.5379968681486
 31
0.0
  0
LINE
  5
56D
330
56A
100
AcDbEntity
  8
Kóty
  6
Continuous
 62
     1
370
     0
100
AcDbLine
 10
109.1457214621269
 20
138.5379968681541
 30
0.0
 11
124.1457214621269
 21
138.5379968681496
 31
0.0
  0
SOLID
  5
56E
330
56A
100
AcDbEntity
  8
Kóty
  6
Continuous
 62
     1
100
AcDbTrace
 10
109.145721462127
 20
139.1213302014874
 30
0.0
 11
109.1457214621267
 21
137.9546635348207
 31
0.0
 12
105.6457214621269
 22
138.5379968681551
 32
0.0
 13
105.6457214621269
 23
138.5379968681551
 33
0.0
  0
SOLID
  5
56F
330
56A
100
AcDbEntity
  8
Kóty
  6
Continuous
 62
     1
100
AcDbTrace
 10
124.1457214621271
 20
139.121330201483
 30
0.0
 11
124.1457214621267
 21
137.9546635348163
 31
0.0
 12
127.6457214621269
 22
138.5379968681486
 32
0.0
 13
127.6457214621269
 23
138.5379968681486
 33
0.0
  0
MTEXT
  5
570
330
56A
100
AcDbEntity
  8
Kóty
  6
Continuous
 62
    18
370
     5
100
AcDbMText
 10
115.1069610506858
 20
143.5379968681523
 30
0.0
 40
3.5
 41
0.0
 71
     1
 72
     1
  1
\A1;22
  7
Text Style57
 73
     1
 44
1.0
1001
ACAD
1000
MTEXTBEGIN
1070
    73
1070
     1
1070
    44
1040
1.0
1070
    74
1070
     0
1000
MTEXTEND
  0
POINT
  5
571
330
56A
100
AcDbEntity
  8
Defpoints
  6
Continuous
 62
     0
100
AcDbPoint
 10
105.6457214621312
 20
153.2286098551726
 30
0.0
  0
POINT
  5
572
330
56A
100
AcDbEntity
  8
Defpoints
  6
Continuous
 62
     0
100
AcDbPoint
 10
127.6457214621312
 20
153.2286098551661
 30
0.0
  0
POINT
  5
573
330
56A
100
AcDbEntity
  8
Defpoints
  6
Continuous
 62
     0
100
AcDbPoint
 10
127.6457214621269
 20
138.5379968681486
 30
0.0
  0
ENDBLK
  5
575
330
56A
100
AcDbEntity
  8
0
100
AcDbBlockEnd
  0
BLOCK
  5
580
330
576
100
AcDbEntity
  8
0
100
AcDbBlockBegin
  2
*D56
 70
     1
 10
0.0
 20
0.0
 30
0.0
  3
*D56
  1

  0
LINE
  5
577
330
576
100
AcDbEntity
  8
Kóty
  6
Continuous
 62
     1
370
     0
100
AcDbLine
 10
116.6457214621313
 20
153.228609855164
 30
0.0
 11
142.9470498832346
 21
153.228609855164
 31
0.0
  0
LINE
  5
578
330
576
100
AcDbEntity
  8
Kóty
  6
Continuous
 62
     1
370
     0
100
AcDbLine
 10
116.645721462163
 20
260.2286098551693
 30
0.0
 11
142.9470498832346
 21
260.2286098551693
 31
0.0
  0
LINE
  5
579
330
576
100
AcDbEntity
  8
Kóty
  6
Continuous
 62
     1
370
     0
100
AcDbLine
 10
141.9470498832346
 20
156.728609855164
 30
0.0
 11
141.9470498832346
 21
256.7286098551693
 31
0.0
  0
SOLID
  5
57A
330
576
100
AcDbEntity
  8
Kóty
  6
Continuous
 62
     1
100
AcDbTrace
 10
141.3637165499013
 20
156.728609855164
 30
0.0
 11
142.5303832165679
 21
156.728609855164
 31
0.0
 12
141.9470498832346
 22
153.228609855164
 32
0.0
 13
141.9470498832346
 23
153.228609855164
 33
0.0
  0
SOLID
  5
57B
330
576
100
AcDbEntity
  8
Kóty
  6
Continuous
 62
     1
100
AcDbTrace
 10
141.3637165499013
 20
256.7286098551693
 30
0.0
 11
142.530383216568
 21
256.7286098551693
 31
0.0
 12
141.9470498832346
 22
260.2286098551693
 32
0.0
 13
141.9470498832346
 23
260.2286098551693
 33
0.0
  0
MTEXT
  5
57C
330
576
100
AcDbEntity
  8
Kóty
  6
Continuous
 62
    18
370
     5
100
AcDbMText
 10
136.9470498832346
 20
199.3771061119129
 30
0.0
 40
3.5
 41
0.0
 71
     1
 72
     1
  1
\A1;107
  7
Text Style57
 11
0.0000000000000001
 21
1.0
 31
0.0
 73
     1
 44
1.0
1001
ACAD
1000
MTEXTBEGIN
1070
    73
1070
     1
1070
    44
1040
1.0
1070
    74
1070
     0
1000
MTEXTEND
  0
POINT
  5
57D
330
576
100
AcDbEntity
  8
Defpoints
  6
Continuous
 62
     0
100
AcDbPoint
 10
116.6457214621313
 20
153.228609855164
 30
0.0
  0
POINT
  5
57E
330
576
100
AcDbEntity
  8
Defpoints
  6
Continuous
 62
     0
100
AcDbPoint
 10
116.645721462163
 20
260.2286098551693
 30
0.0
  0
POINT
  5
57F
330
576
100
AcDbEntity
  8
Defpoints
  6
Continuous
 62
     0
100
AcDbPoint
 10
141.9470498832346
 20
260.2286098551693
 30
0.0
  0
ENDBLK
  5
581
330
576
100
AcDbEntity
  8
0
100
AcDbBlockEnd
  0
ENDSEC
  0
SECTION
  2
ENTITIES
  0
LINE
  5
369
330
21
100
AcDbEntity
  8
Viditelné hrany
  6
Continuous
 48
0.0
370
    25
100
AcDbLine
 10
45.5930854886655
 20
153.2286098551693
 30
0.0
 11
67.59308548866549
 21
153.2286098551693
 31
0.0
  0
LINE
  5
36A
330
21
100
AcDbEntity
  8
Viditelné hrany
  6
Continuous
 48
0.0
370
    25
100
AcDbLine
 10
45.59308548866549
 20
153.2286098551693
 30
0.0
 11
45.59308548866549
 21
180.2286098551673
 31
0.0
  0
LINE
  5
36B
330
21
100
AcDbEntity
  8
Viditelné hrany
  6
Continuous
 48
0.0
370
    25
100
AcDbLine
 10
67.59308548866549
 20
153.2286098551693
 30
0.0
 11
67.59308548866549
 21
180.2286098551673
 31
0.0
  0
LINE
  5
36C
330
21
100
AcDbEntity
  8
Viditelné hrany
  6
Continuous
 48
0.0
370
    25
100
AcDbLine
 10
43.59308548866549
 20
180.2286098551693
 30
0.0
 11
69.59308548866549
 21
180.2286098551693
 31
0.0
  0
LINE
  5
36D
330
21
100
AcDbEntity
  8
Viditelné hrany
  6
Continuous
 48
0.0
370
    25
100
AcDbLine
 10
43.59308548866549
 20
180.2286098551693
 30
0.0
 11
43.59308548866549
 21
247.2286098551693
 31
0.0
  0
LINE
  5
36E
330
21
100
AcDbEntity
  8
Viditelné hrany
  6
Continuous
 48
0.0
370
    25
100
AcDbLine
 10
69.59308548866551
 20
180.2286098551693
 30
0.0
 11
69.59308548866551
 21
247.2286098551693
 31
0.0
  0
ARC
  5
36F
330
21
100
AcDbEntity
  8
Viditelné hrany
  6
Continuous
 48
0.0
370
    25
100
AcDbCircle
 10
56.59308548866549
 20
247.2286098551693
 30
0.0
 40
13.0
100
AcDbArc
 50
0.0
 51
180.0
  0
LINE
  5
391
330
21
100
AcDbEntity
  8
Viditelné hrany
  6
Continuous
 48
0.0
370
    25
100
AcDbLine
 10
105.6457214621591
 20
247.2286098551726
 30
0.0
 11
105.6457214621312
 21
153.2286098551726
 31
0.0
  0
LINE
  5
392
330
21
100
AcDbEntity
  8
Viditelné hrany
  6
Continuous
 48
0.0
370
    25
100
AcDbLine
 10
105.6457214621312
 20
153.2286098551726
 30
0.0
 11
107.6457214621312
 21
153.228609855172
 31
0.0
  0
LINE
  5
393
330
21
100
AcDbEntity
  8
Viditelné hrany
  6
Continuous
 48
0.0
370
    25
100
AcDbLine
 10
107.6457214621312
 20
153.228609855172
 30
0.0
 11
107.6457214621568
 21
239.228609855172
 31
0.0
  0
LINE
  5
394
330
21
100
AcDbEntity
  8
Viditelné hrany
  6
Continuous
 48
0.0
370
    25
100
AcDbLine
 10
107.6457214621568
 20
239.228609855172
 30
0.0
 11
107.1457214621568
 21
239.2286098551722
 31
0.0
  0
LINE
  5
395
330
21
100
AcDbEntity
  8
Viditelné hrany
  6
Continuous
 48
0.0
370
    25
100
AcDbLine
 10
107.1457214621568
 20
239.2286098551722
 30
0.0
 11
107.1457214621591
 21
247.2286098551721
 31
0.0
  0
LINE
  5
396
330
21
100
AcDbEntity
  8
Viditelné hrany
  6
Continuous
 48
0.0
370
    25
100
AcDbLine
 10
107.1457214621591
 20
247.2286098551721
 30
0.0
 11
105.6457214621591
 21
247.2286098551726
 31
0.0
  0
LINE
  5
397
330
21
100
AcDbEntity
  8
Viditelné hrany
  6
Continuous
 48
0.0
370
    25
100
AcDbLine
 10
127.6457214621312
 20
153.228609855166
 30
0.0
 11
127.6457214621591
 21
247.2286098551661
 31
0.0
  0
LINE
  5
398
330
21
100
AcDbEntity
  8
Viditelné hrany
  6
Continuous
 48
0.0
370
    25
100
AcDbLine
 10
127.6457214621591
 20
247.2286098551661
 30
0.0
 11
126.1457214621591
 21
247.2286098551665
 31
0.0
  0
LINE
  5
399
330
21
100
AcDbEntity
  8
Viditelné hrany
  6
Continuous
 48
0.0
370
    25
100
AcDbLine
 10
126.1457214621591
 20
247.2286098551665
 30
0.0
 11
126.1457214621567
 21
239.2286098551665
 31
0.0
  0
LINE
  5
39A
330
21
100
AcDbEntity
  8
Viditelné hrany
  6
Continuous
 48
0.0
370
    25
100
AcDbLine
 10
126.1457214621567
 20
239.2286098551665
 30
0.0
 11
125.6457214621568
 21
239.2286098551667
 31
0.0
  0
LINE
  5
39B
330
21
100
AcDbEntity
  8
Viditelné hrany
  6
Continuous
 48
0.0
370
    25
100
AcDbLine
 10
125.6457214621568
 20
239.2286098551667
 30
0.0
 11
125.6457214621312
 21
153.2286098551666
 31
0.0
  0
LINE
  5
39C
330
21
100
AcDbEntity
  8
Viditelné hrany
  6
Continuous
 48
0.0
370
    25
100
AcDbLine
 10
125.6457214621312
 20
153.2286098551666
 30
0.0
 11
127.6457214621312
 21
153.228609855166
 31
0.0
  0
LINE
  5
39D
330
21
100
AcDbEntity
  8
Viditelné hrany
  6
Continuous
 48
0.0
370
    25
100
AcDbLine
 10
125.6457214621568
 20
239.2286098551667
 30
0.0
 11
107.6457214621568
 21
239.228609855172
 31
0.0
  0
LINE
  5
39E
330
21
100
AcDbEntity
  8
Viditelné hrany
  6
Continuous
 48
0.0
370
    25
100
AcDbLine
 10
125.6457214621312
 20
153.2286098551666
 30
0.0
 11
107.6457214621312
 21
153.228609855172
 31
0.0
  0
ARC
  5
39F
330
21
100
AcDbEntity
  8
Viditelné hrany
  6
Continuous
 48
0.0
370
    25
100
AcDbCircle
 10
116.6457214621591
 20
247.2286098551693
 30
0.0
 40
11.0
100
AcDbArc
 50
0.0
 51
180.0
  0
LINE
  5
3A0
330
21
100
AcDbEntity
  8
Viditelné hrany
  6
Continuous
 48
0.0
370
    25
100
AcDbLine
 10
105.6457214621591
 20
247.2286098551726
 30
0.0
 11
107.1457214621591
 21
247.2286098551721
 31
0.0
  0
LINE
  5
3A1
330
21
100
AcDbEntity
  8
Viditelné hrany
  6
Continuous
 48
0.0
370
    25
100
AcDbLine
 10
107.1457214621591
 20
247.2286098551721
 30
0.0
 11
107.1457214621572
 21
240.7286098551722
 31
0.0
  0
LINE
  5
3A2
330
21
100
AcDbEntity
  8
Viditelné hrany
  6
Continuous
 48
0.0
370
    25
100
AcDbLine
 10
107.1457214621572
 20
240.7286098551722
 30
0.0
 11
107.645721462157
 21
240.228609855172
 31
0.0
  0
LINE
  5
3A3
330
21
100
AcDbEntity
  8
Viditelné hrany
  6
Continuous
 48
0.0
370
    25
100
AcDbLine
 10
107.645721462157
 20
240.228609855172
 30
0.0
 11
125.6457214621571
 21
240.2286098551667
 31
0.0
  0
LINE
  5
3A4
330
21
100
AcDbEntity
  8
Viditelné hrany
  6
Continuous
 48
0.0
370
    25
100
AcDbLine
 10
125.6457214621571
 20
240.2286098551667
 30
0.0
 11
126.1457214621572
 21
240.7286098551665
 31
0.0
  0
LINE
  5
3A5
330
21
100
AcDbEntity
  8
Viditelné hrany
  6
Continuous
 48
0.0
370
    25
100
AcDbLine
 10
126.1457214621572
 20
240.7286098551665
 30
0.0
 11
126.1457214621591
 21
247.2286098551665
 31
0.0
  0
LINE
  5
3A6
330
21
100
AcDbEntity
  8
Viditelné hrany
  6
Continuous
 48
0.0
370
    25
100
AcDbLine
 10
126.1457214621591
 20
247.2286098551665
 30
0.0
 11
127.6457214621591
 21
247.2286098551661
 31
0.0
  0
ARC
  5
3A7
330
21
100
AcDbEntity
  8
Viditelné hrany
  6
Continuous
 48
0.0
370
    25
100
AcDbCircle
 10
116.6457214621591
 20
247.2286098551693
 30
0.0
 40
13.0
100
AcDbArc
 50
0.0
 51
180.0
  0
LINE
  5
3A8
330
21
100
AcDbEntity
  8
Viditelné hrany
  6
Continuous
 48
0.0
370
    25
100
AcDbLine
 10
103.6457214621591
 20
247.2286098551732
 30
0.0
 11
103.6457214621392
 21
180.2286098551732
 31
0.0
  0
LINE
  5
3A9
330
21
100
AcDbEntity
  8
Viditelné hrany
  6
Continuous
 48
0.0
370
    25
100
AcDbLine
 10
103.6457214621392
 20
180.2286098551732
 30
0.0
 11
105.6457214621392
 21
180.2286098551725
 31
0.0
  0
LINE
  5
3AA
330
21
100
AcDbEntity
  8
Viditelné hrany
  6
Continuous
 48
0.0
370
    25
100
AcDbLine
 10
105.6457214621392
 20
180.2286098551725
 30
0.0
 11
105.6457214621591
 21
247.2286098551726
 31
0.0
  0
ARC
  5
3AB
330
21
100
AcDbEntity
  8
Viditelné hrany
  6
Continuous
 48
0.0
370
    25
100
AcDbCircle
 10
116.6457214621591
 20
247.2286098551693
 30
0.0
 40
11.0
100
AcDbArc
 50
0.0
 51
180.0
  0
LINE
  5
3AC
330
21
100
AcDbEntity
  8
Viditelné hrany
  6
Continuous
 48
0.0
370
    25
100
AcDbLine
 10
127.6457214621591
 20
247.2286098551661
 30
0.0
 11
127.6457214621392
 21
180.2286098551661
 31
0.0
  0
LINE
  5
3AD
330
21
100
AcDbEntity
  8
Viditelné hrany
  6
Continuous
 48
0.0
370
    25
100
AcDbLine
 10
127.6457214621392
 20
180.2286098551661
 30
0.0
 11
129.6457214621393
 21
180.2286098551654
 31
0.0
  0
LINE
  5
3AE
330
21
100
AcDbEntity
  8
Viditelné hrany
  6
Continuous
 48
0.0
370
    25
100
AcDbLine
 10
129.6457214621393
 20
180.2286098551654
 30
0.0
 11
129.6457214621591
 21
247.2286098551655
 31
0.0
  0
HATCH
  5
3BC
330
21
100
AcDbEntity
  8
Hatch
  6
Continuous
 62
   100
370
    18
100
AcDbHatch
 10
0.0
 20
0.0
 30
0.0
210
0.0
220
0.0
230
1.0
  2
ANSI31
 70
     0
 71
     0
 91
        2
 92
        1
 93
        6
 72
     1
 10
105.6457214621591
 20
247.2286098551726
 11
105.6457214621312
 21
153.2286098551726
 72
     1
 10
105.6457214621312
 20
153.2286098551726
 11
107.6457214621312
 21
153.228609855172
 72
     1
 10
107.6457214621312
 20
153.228609855172
 11
107.6457214621568
 21
239.228609855172
 72
     1
 10
107.6457214621568
 20
239.228609855172
 11
107.1457214621568
 21
239.2286098551722
 72
     1
 10
107.1457214621568
 20
239.2286098551722
 11
107.1457214621591
 21
247.2286098551721
 72
     1
 10
107.1457214621591
 20
247.2286098551721
 11
105.6457214621591
 21
247.2286098551726
 97
        0
 92
        1
 93
        6
 72
     1
 10
127.6457214621312
 20
153.2286098551661
 11
127.6457214621591
 21
247.2286098551661
 72
     1
 10
127.6457214621591
 20
247.2286098551661
 11
126.1457214621591
 21
247.2286098551665
 72
     1
 10
126.1457214621591
 20
247.2286098551665
 11
126.1457214621567
 21
239.2286098551665
 72
     1
 10
126.1457214621567
 20
239.2286098551665
 11
125.6457214621568
 21
239.2286098551667
 72
     1
 10
125.6457214621568
 20
239.2286098551667
 11
125.6457214621313
 21
153.2286098551666
 72
     1
 10
125.6457214621312
 20
153.2286098551666
 11
127.6457214621312
 21
153.228609855166
 97
        0
 75
     0
 76
     1
 52
-90.0
 41
25.4
 77
     0
 78
     1
 53
315.0
 43
0.0
 44
0.0
 45
2.245064030267288
 46
2.245064030267288
 79
     0
 98
        1
 10
0.0
 20
0.0
  0
HATCH
  5
3C5
330
21
100
AcDbEntity
  8
Hatch
  6
Continuous
 62
   100
370
    18
100
AcDbHatch
 10
0.0
 20
0.0
 30
0.0
210
0.0
220
0.0
230
1.0
  2
ANSI31
 70
     0
 71
     0
 91
        1
 92
        1
 93
        8
 72
     3
 10
116.6457214621591
 20
247.2286098551693
 11
-0.0000000000032637
 21
-11.0
 40
1.0
 50
89.99999999999998
 51
270.0
 73
     1
 72
     1
 10
105.6457214621591
 20
247.2286098551726
 11
107.1457214621591
 21
247.2286098551721
 72
     1
 10
107.1457214621591
 20
247.2286098551721
 11
107.1457214621572
 21
240.7286098551722
 72
     1
 10
107.1457214621572
 20
240.7286098551722
 11
107.6457214621571
 21
240.228609855172
 72
     1
 10
107.6457214621571
 20
240.228609855172
 11
125.6457214621571
 21
240.2286098551666
 72
     1
 10
125.6457214621571
 20
240.2286098551666
 11
126.1457214621572
 21
240.7286098551665
 72
     1
 10
126.1457214621572
 20
240.7286098551665
 11
126.1457214621591
 21
247.2286098551665
 72
     1
 10
126.1457214621591
 20
247.2286098551665
 11
127.6457214621591
 21
247.2286098551661
 97
        0
 75
     0
 76
     1
 52
0.0
 41
25.4
 77
     0
 78
     1
 53
45.0
 43
0.0
 44
0.0
 45
-2.245064030267288
 46
2.245064030267288
 79
     0
 98
        1
 10
0.0
 20
0.0
  0
HATCH
  5
3CE
330
21
100
AcDbEntity
  8
Hatch
  6
Continuous
 62
   100
370
    18
100
AcDbHatch
 10
0.0
 20
0.0
 30
0.0
210
0.0
220
0.0
230
1.0
  2
ANSI31
 70
     0
 71
     0
 91
        1
 92
        1
 93
        8
 72
     3
 10
116.6457214621591
 20
247.2286098551693
 11
-0.0000000000038571
 21
-13.0
 40
1.0
 50
89.99999999999992
 51
270.0000000000001
 73
     1
 72
     1
 10
103.6457214621591
 20
247.2286098551732
 11
103.6457214621392
 21
180.2286098551731
 72
     1
 10
103.6457214621393
 20
180.2286098551732
 11
105.6457214621393
 21
180.2286098551726
 72
     1
 10
105.6457214621392
 20
180.2286098551726
 11
105.6457214621591
 21
247.2286098551726
 72
     3
 10
116.6457214621591
 20
247.2286098551693
 11
-0.0000000000032637
 21
-11.0
 40
1.0
 50
90.0
 51
270.0
 73
     0
 72
     1
 10
127.6457214621591
 20
247.2286098551661
 11
127.6457214621392
 21
180.228609855166
 72
     1
 10
127.6457214621393
 20
180.2286098551661
 11
129.6457214621393
 21
180.2286098551655
 72
     1
 10
129.6457214621393
 20
180.2286098551654
 11
129.6457214621591
 21
247.2286098551655
 97
        0
 75
     0
 76
     1
 52
-75.0
 41
25.4
 77
     0
 78
     1
 53
330.0
 43
0.0
 44
0.0
 45
1.5875
 46
2.749630657015592
 79
     0
 98
        1
 10
0.0
 20
0.0
  0
LINE
  5
3DA
330
21
100
AcDbEntity
  8
Osa
 48
0.0
370
    18
100
AcDbLine
 10
56.59308548866549
 20
151.1658881620439
 30
0.0
 11
56.59308548866549
 21
263.1331909678876
 31
0.0
  0
LINE
  5
3DB
330
21
100
AcDbEntity
  8
Osa
 48
0.0
370
    18
100
AcDbLine
 10
116.6457214621628
 20
259.5029951739827
 30
0.0
 11
116.6457214621301
 21
149.2015495163269
 31
0.0
  0
DIMENSION
  5
3DC
330
21
100
AcDbEntity
  8
Kóty
  6
Continuous
 62
    11
 48
0.0
370
     5
100
AcDbDimension
  2
*D55
 10
127.6457214621269
 20
138.5379968681486
 30
0.0
 11
117.2069610506843
 21
138.5379968681517
 31
0.0
 70
   160
  1
<>
 42
22.00000000000001
  3
AM_CSN
100
AcDbAlignedDimension
 13
105.6457214621312
 23
153.2286098551726
 33
0.0
 14
127.6457214621312
 24
153.2286098551661
 34
0.0
 50
179.999999999983
100
AcDbRotatedDimension
1001
ACAD
1000
DSTYLE
1002
{
1070
   271
1070
     1
1070
   340
1005
9E
1070
   272
1070
     1
1070
    47
1040
0.0
1070
    48
1040
0.0
1002
}
  0
DIMENSION
  5
471
330
21
100
AcDbEntity
  8
Kóty
  6
Continuous
 62
    11
 48
0.0
370
     5
100
AcDbDimension
  2
*D56
 10
141.9470498832346
 20
260.2286098551693
 30
0.0
 11
141.9470498832346
 21
202.3521061119129
 31
0.0
 70
   160
  1
<>
 42
107.0000000000053
  3
AM_CSN
100
AcDbAlignedDimension
 13
116.6457214621313
 23
153.228609855164
 33
0.0
 14
116.645721462163
 24
260.2286098551693
 34
0.0
 50
89.99999999998305
100
AcDbRotatedDimension
1001
ACAD
1000
DSTYLE
1002
{
1070
   271
1070
     1
1070
   340
1005
9E
1070
   272
1070
     1
1070
    47
1040
0.0
1070
    48
1040
0.0
1002
}
  0
ELLIPSE
  5
562
330
21
100
AcDbEntity
  8
Viditelné hrany
  6
Continuous
 48
0.0
370
    25
100
AcDbEllipse
 10
179.223935584035
 20
115.5650913723716
 30
0.0
 11
11.0
 21
-0.0000000000028217
 31
0.0
210
0.0
220
0.0
230
1.0
 40
0.5758617009854837
 41
3.141592653589792
 42
6.283185307179585
  0
LINE
  5
563
330
21
100
AcDbEntity
  8
Viditelné hrany
  6
Continuous
 48
0.0
370
    25
100
AcDbLine
 10
168.223935584035
 20
115.5650913723744
 30
0.0
 11
168.2239355840396
 21
133.6491768461602
 31
0.0
  0
LINE
  5
564
330
21
100
AcDbEntity
  8
Viditelné hrany
  6
Continuous
 48
0.0
370
    25
100
AcDbLine
 10
190.223935584035
 20
115.5650913723688
 30
0.0
 11
190.2239355840396
 21
133.6491768461545
 31
0.0
  0
ELLIPSE
  5
565
330
21
100
AcDbEntity
  8
Tangenciální hrany
  6
Continuous
 62
   179
370
    25
100
AcDbEllipse
 10
179.2239355840547
 20
192.414521107559
 30
0.0
 11
-13.0
 21
0.0000000000033362
 31
0.0
210
0.0
220
0.0
230
1.0
 40
0.5758617009854835
 41
0.0
 42
3.141592653589793
  0
ARC
  5
566
330
21
100
AcDbEntity
  8
Viditelné hrany
  6
Continuous
 48
0.0
370
    25
100
AcDbCircle
 10
179.2239355840547
 20
192.414521107559
 30
0.0
 40
13.0
100
AcDbArc
 50
0.0
 51
180.0
  0
ELLIPSE
  5
567
330
21
100
AcDbEntity
  8
Viditelné hrany
  6
Continuous
 48
0.0
370
    25
100
AcDbEllipse
 10
179.2239355840407
 20
137.6388637431169
 30
0.0
 11
13.0
 21
-0.0000000000033369
 31
0.0
210
0.0
220
0.0
230
1.0
 40
0.5758617009854835
 41
3.141592653589793
 42
6.283185307179586
  0
LINE
  5
568
330
21
100
AcDbEntity
  8
Viditelné hrany
  6
Continuous
 48
0.0
370
    25
100
AcDbLine
 10
166.2239355840406
 20
137.6388637431202
 30
0.0
 11
166.2239355840547
 21
192.4145211075623
 31
0.0
  0
LINE
  5
569
330
21
100
AcDbEntity
  8
Viditelné hrany
  6
Continuous
 48
0.0
370
    25
100
AcDbLine
 10
192.2239355840406
 20
137.6388637431136
 30
0.0
 11
192.2239355840547
 21
192.4145211075557
 31
0.0
  0
ENDSEC
  0
SECTION
  2
OBJECTS
  0
DICTIONARY
  5
C
330
0
100
AcDbDictionary
281
     1
  3
ACAD_COLOR
350
1C
  3
ACAD_GROUP
350
D
  3
ACAD_LAYOUT
350
1A
  3
ACAD_MATERIAL
350
1B
  3
ACAD_MLINESTYLE
350
17
  3
ACAD_PLOTSETTINGS
350
19
  3
ACAD_PLOTSTYLENAME
350
E
  3
ACDBHEADERROUNDTRIPXREC
350
5A5
  3
AcDbVariableDictionary
350
58C
  3
DWGPROPS
350
5A4
  0
DICTIONARY
  5
1C
102
{ACAD_REACTORS
330
C
102
}
330
C
100
AcDbDictionary
281
     1
  0
DICTIONARY
  5
D
102
{ACAD_REACTORS
330
C
102
}
330
C
100
AcDbDictionary
281
     1
  0
DICTIONARY
  5
1A
102
{ACAD_REACTORS
330
C
102
}
330
C
100
AcDbDictionary
281
     1
  3
Layout1
350
20
  3
Layout2
350
28
  3
Model
350
24
  0
DICTIONARY
  5
1B
102
{ACAD_REACTORS
330
C
102
}
330
C
100
AcDbDictionary
281
     1
  0
DICTIONARY
  5
17
102
{ACAD_REACTORS
330
C
102
}
330
C
100
AcDbDictionary
281
     1
  3
Standard
350
18
  0
DICTIONARY
  5
19
102
{ACAD_REACTORS
330
C
102
}
330
C
100
AcDbDictionary
281
     1
  0
ACDBDICTIONARYWDFLT
  5
E
102
{ACAD_REACTORS
330
C
102
}
330
C
100
AcDbDictionary
281
     1
  3
Normal
350
F
100
AcDbDictionaryWithDefault
340
F
  0
DICTIONARY
  5
5A5
102
{ACAD_REACTORS
330
C
102
}
330
C
100
AcDbDictionary
281
     1
  3
COLORDICT
350
5A7
  3
MATERIALDICT
350
5A6
  0
DICTIONARY
  5
58C
102
{ACAD_REACTORS
330
C
102
}
330
C
100
AcDbDictionary
281
     1
  3
DIMASSOC
350
58E
  3
HIDETEXT
350
58D
  3
PROJECTNAME
350
58F
  0
XRECORD
  5
5A4
102
{ACAD_REACTORS
330
C
102
}
330
C
100
AcDbXrecord
280
     1
  1
DWGPROPS COOKIE
  2

  3

  4
KYSILKO
  6

  7

  8

  9

300
=
301
=
302
=
303
=
304
=
305
=
306
=
307
=
308
=
309
=
 40
0.0002327430555556
 41
2453643.720672014
 42
2453643.729611898
  1

 90
        0
  0
LAYOUT
  5
20
102
{ACAD_XDICTIONARY
360
5A8
102
}
102
{ACAD_REACTORS
330
1A
102
}
330
1A
100
AcDbPlotSettings
  1

  2

  4

  6

 40
0.0
 41
0.0
 42
0.0
 43
0.0
 44
0.0
 45
0.0
 46
0.0
 47
0.0
 48
0.0
 49
0.0
140
0.0
141
0.0
142
1.0
143
1.0
 70
   688
 72
     0
 73
     0
 74
     5
  7

 75
    16
147
1.0
148
0.0
149
0.0
100
AcDbLayout
  1
Layout1
 70
     1
 71
     1
 10
0.0
 20
0.0
 11
709.676
 21
548.3859999999999
 12
0.0
 22
0.0
 32
0.0
 14
0.0
 24
0.0
 34
0.0
 15
709.676
 25
548.3859999999999
 35
0.0
146
0.0
 13
0.0
 23
0.0
 33
0.0
 16
1.0
 26
0.0
 36
0.0
 17
0.0
 27
1.0
 37
0.0
 76
     0
330
1D
  0
LAYOUT
  5
28
102
{ACAD_XDICTIONARY
360
5AC
102
}
102
{ACAD_REACTORS
330
1A
102
}
330
1A
100
AcDbPlotSettings
  1

  2

  4

  6

 40
0.0
 41
0.0
 42
0.0
 43
0.0
 44
0.0
 45
0.0
 46
0.0
 47
0.0
 48
0.0
 49
0.0
140
0.0
141
0.0
142
1.0
143
1.0
 70
   688
 72
     0
 73
     0
 74
     5
  7

 75
    16
147
1.0
148
0.0
149
0.0
100
AcDbLayout
  1
Layout2
 70
     1
 71
     2
 10
0.0
 20
0.0
 11
12.0
 21
9.0
 12
0.0
 22
0.0
 32
0.0
 14
0.0
 24
0.0
 34
0.0
 15
0.0
 25
0.0
 35
0.0
146
0.0
 13
0.0
 23
0.0
 33
0.0
 16
1.0
 26
0.0
 36
0.0
 17
0.0
 27
1.0
 37
0.0
 76
     0
330
25
  0
LAYOUT
  5
24
102
{ACAD_XDICTIONARY
360
5AA
102
}
102
{ACAD_REACTORS
330
1A
102
}
330
1A
100
AcDbPlotSettings
  1

  2

  4

  6

 40
0.0
 41
0.0
 42
0.0
 43
0.0
 44
0.0
 45
0.0
 46
0.0
 47
0.0
 48
0.0
 49
0.0
140
0.0
141
0.0
142
1.0
143
1.0
 70
  1712
 72
     0
 73
     0
 74
     0
  7

 75
     0
147
1.0
148
0.0
149
0.0
100
AcDbLayout
  1
Model
 70
     1
 71
     0
 10
0.0
 20
0.0
 11
12.0
 21
9.0
 12
0.0
 22
0.0
 32
0.0
 14
0.0
 24
0.0
 34
0.0
 15
0.0
 25
0.0
 35
0.0
146
0.0
 13
0.0
 23
0.0
 33
0.0
 16
1.0
 26
0.0
 36
0.0
 17
0.0
 27
1.0
 37
0.0
 76
     0
330
21
  0
MLINESTYLE
  5
18
102
{ACAD_REACTORS
330
17
102
}
330
17
100
AcDbMlineStyle
  2
STANDARD
 70
     0
  3

 62
   256
 51
90.0
 52
90.0
 71
     2
 49
0.5
 62
   256
  6
BYLAYER
 49
-0.5
 62
   256
  6
BYLAYER
  0
ACDBPLACEHOLDER
  5
F
102
{ACAD_REACTORS
330
E
102
}
330
E
  0
XRECORD
  5
5A7
102
{ACAD_REACTORS
330
5A5
102
}
330
5A5
100
AcDbXrecord
280
     1
340
1C
  0
XRECORD
  5
5A6
102
{ACAD_REACTORS
330
5A5
102
}
330
5A5
100
AcDbXrecord
280
     1
340
1B
  0
DICTIONARYVAR
  5
58E
102
{ACAD_REACTORS
330
58C
102
}
330
58C
100
DictionaryVariables
280
     0
  1
1
  0
DICTIONARYVAR
  5
58D
102
{ACAD_REACTORS
330
58C
102
}
330
58C
100
DictionaryVariables
280
     0
  1
1
  0
DICTIONARYVAR
  5
58F
102
{ACAD_REACTORS
330
58C
102
}
330
58C
100
DictionaryVariables
280
     0
  1

  0
DICTIONARY
  5
5A8
330
20
100
AcDbDictionary
280
     1
281
     1
  3
ACAD_XREC_ROUNDTRIP
360
5A9
  0
DICTIONARY
  5
5AC
330
28
100
AcDbDictionary
280
     1
281
     1
  3
ACAD_XREC_ROUNDTRIP
360
5AD
  0
DICTIONARY
  5
5AA
330
24
100
AcDbDictionary
280
     1
281
     1
  3
ACAD_XREC_ROUNDTRIP
360
5AB
  0
XRECORD
  5
5A9
102
{ACAD_REACTORS
330
5A8
102
}
330
5A8
100
AcDbXrecord
280
     1
102
SHADEPLOT
 70
     0
102
SHADEPLOTRESLEVEL
 70
     2
102
SHADEPLOTCUSTOMDPI
 70
   300
  0
XRECORD
  5
5AD
102
{ACAD_REACTORS
330
5AC
102
}
330
5AC
100
AcDbXrecord
280
     1
102
SHADEPLOT
 70
     0
102
SHADEPLOTRESLEVEL
 70
     2
102
SHADEPLOTCUSTOMDPI
 70
   300
  0
XRECORD
  5
5AB
102
{ACAD_REACTORS
330
5AA
102
}
330
5AA
100
AcDbXrecord
280
     1
102
SHADEPLOT
 70
     0
102
SHADEPLOTRESLEVEL
 70
     2
102
SHADEPLOTCUSTOMDPI
 70
   300
  0
ENDSEC
  0
EOF
